MEGA SALE -50% FORZA HORIZON 4 ULTIMATE+ВСЕ DLC+ОНЛАЙН всего за 599р. 299 руб. (супер цена). Внимание количество ограничено!!!

iTunes

1+1

iTunes

мы

iTunes

1

iTunes

Чернобыль

iTunes

Ральф против интернета

Лицензия

ПШазам

Лицензия

Игра престолов

Лицензия

30
pack

ВАЖНО

!!Акция!!

Alien_RageХит недели

RePack

Resident Evil 21

ИГРА 18+

pack

RePack

Metro:Exodus

!!Акция!!

Alien_Rage

RePack

fifa19

RePack

Assassins Creed: Odyssey

RePack

NEED FOR SPEED™ PAYBACK

3 сезон

9 сезон

Бесстыжие 9 сезон

Все сериалы

все сериалы на PB.wtf

RePack

FAR CRY 5
Ребята, катастрофически не хватает 7730р. для оплаты серверов за АВГУСТ (всвязи с блокировками трафик упал в 3 раза), 1-2р., выручайте.
  

Маленькая барабанщица / The Little Drummer Girl / Сезон: 1 / Серии 1-6 из 6 (Пак Чхан Ук / Park Chan-wook) [2018, триллер, драма, WEB-DLRip 720p] [MVO] (Ozz) pb.wtf

Маленькая барабанщица через торрент pb.wtf

Размер: 7.14 GB | Добавлен: 9 мес. назад | Торрент скачан:28 раз
Скачать  

03-11-2018 18:52 Маленькая барабанщица Скачать торрент  

The Little Drummer Girl - First Season
Маленькая барабанщица - Первый сезон
Год выхода: 2018
Страна
: Великобритания, США
Жанр
: триллер, драма
Продолжительность: ~56 мин
Перевод: Профессиональный (многоголосый закадровый) Ozz
Режиссер: Пак Чхан-ук
В ролях: Флоренс Пью, Александр Скарсгард, Майкл Шеннон, Майкл Мошонов, Симона Браун, Клер Холман, Кейт Самптер, Gennady Fleyscher, Амир Хури, Катарина Шюттлер и др.
Описание: На отдыхе в Греции молодая актриса Чарли знакомится с Беккером. Довольно скоро выясняется, что мужчиной движет не любовный интерес. Он — офицер израильской разведки, который втягивает Чарли в смертельно опасную борьбу западных спецслужб с терроризмом в Европе и на Ближнем Востоке.

Sample

Очистка от рекламы: скриншот  
Роли озвучивают: Алексей Серегин, Иван Кузнецов и Маргарита Корш|
Автор перевода: |Ольга Гатилина|
Подготовлено: Ozz
Качество: WEB-DLRip 720p
Формат: mkv
Видео кодек: x264
Аудио кодек: AC3
Видео: 1280x720 at 25 fps, AVC, ~2900 kbps avg
Аудио #1: Russian 48.0 KHz, AC3 , 2 channels, 192 Kbps |Ozz|
Аудио #2: English 48.0 KHz, AC3 , 6 channels, 384 Kbps |Original|
Субтитры: Russian - (srt)
General
Unique ID : 270976000836766598906485943464793652274 (0xCBDC1455031E55C75DB9BDF37F9ABC32)
Complete name : E:\Маленькая барабанщица. Мини-сериал. 2018. OZZ (WEB-DLRip 720p)\The.Little.Drummer.Girl.s01e01. Эпизод 1.mkv
Format : Matroska
Format version : Version 4 / Version 2
File size : 1.04 GiB
Duration : 55 min 58 s
Overall bit rate : 2 657 kb/s
Encoded date : UTC 2018-11-03 19:34:10
Writing application : mkvmerge v25.0.0 ('Prog Noir') 64-bit
Writing library : libebml v1.3.6 + libmatroska v1.4.9

Video
ID : 1
Format : AVC
Format/Info : Advanced Video Codec
Format profile : High@L3.1
Format settings : CABAC / 5 Ref Frames
Format settings, CABAC : Yes
Format settings, RefFrames : 5 frames
Codec ID : V_MPEG4/ISO/AVC
Duration : 55 min 58 s
Bit rate : 2 028 kb/s
Width : 1 280 pixels
Height : 720 pixels
Display aspect ratio : 16:9
Frame rate mode : Constant
Frame rate : 25.000 FPS
Color space : YUV
Chroma subsampling : 4:2:0
Bit depth : 8 bits
Scan type : Progressive
Bits/(Pixel*Frame) : 0.088
Stream size : 812 MiB (76%)
Language : English
Default : Yes
Forced : No
Color range : Limited
Color primaries : BT.709
Transfer characteristics : BT.709
Matrix coefficients : BT.709

Audio #1
ID : 2
Format : AC-3
Format/Info : Audio Coding 3
Format settings, Endianness : Big
Codec ID : A_AC3
Duration : 55 min 58 s
Bit rate mode : Constant
Bit rate : 192 kb/s
Channel(s) : 2 channels
Channel positions : Front: L R
Sampling rate : 48.0 kHz
Frame rate : 31.250 FPS (1536 SPF)
Bit depth : 16 bits
Compression mode : Lossy
Stream size : 76.9 MiB (7%)
Language : Russian
Service kind : Complete Main
Default : Yes
Forced : No

Audio #2
ID : 3
Format : AC-3
Format/Info : Audio Coding 3
Format settings, Endianness : Big
Codec ID : A_AC3
Duration : 55 min 58 s
Bit rate mode : Constant
Bit rate : 384 kb/s
Channel(s) : 6 channels
Channel positions : Front: L C R, Side: L R, LFE
Sampling rate : 48.0 kHz
Frame rate : 31.250 FPS (1536 SPF)
Bit depth : 16 bits
Compression mode : Lossy
Stream size : 154 MiB (14%)
Language : English
Service kind : Complete Main
Default : No
Forced : No

Text #1
ID : 4
Format : UTF-8
Codec ID : S_TEXT/UTF8
Codec ID/Info : UTF-8 Plain Text
Title : Forced
Language : Russian
Default : Yes
Forced : Yes

Text #2
ID : 5
Format : UTF-8
Codec ID : S_TEXT/UTF8
Codec ID/Info : UTF-8 Plain Text
Language : Russian
Default : No
Forced : No
скриншот  скриншот  скриншот  
Внимание! Раздача ведётся путём добавления новых серий; при каждом добавлении создаётся новый торрент. Чтобы начать докачку новой серии, пользователям необходимо сделать следующее:
(1) остановить скачивание,
(2) удалить старый торрент у себя из клиента (старые серии удалять не надо),
(3) скачать новый торрент и запустить его у себя в клиенте вместо старого, при этом указать клиенту путь в старую папку куда и должно происходить скачивание новых серий.

Ваш клиент при этом должен произвести хеширование (проверку) старой папки (если не производит сам - помогите ему сделать это), и будет докачивать только те серии которых у вас ещё нет. Старые серии при этом не удаляются, а продолжают раздаваться!

Eсли вы уже удалили старые серии, то предотвратить повторную закачку старых серий можно, отжав галочку в соответствующих местах при запуске нового торрента. По возможности, желательно не удалять старые серии как можно дольше чтобы релизёр не столько продолжал раздавать старые серии, а смог сконцентрироваться на новых.
pb.wtf



Скачать Маленькая барабанщица через торрент https://i6.imageban.ru/out/2018/11/02/c14ca8f5514cb18f9b82232d2c63fb10.jpg Скачать фильм Маленькая барабанщица через торрент бесплантно в хорошем качестве Описание: На отдыхе в Греции молодая актриса Чарли знакомится с Беккером. Довольно скоро выясняется, что мужчиной движет не любовный ... 7.5 10 2
Торрент: Зарегистрирован [2018-11-30 21:01] · скачан: 28 раз
Статус: √ проверено
Размер: 7.14 GB
Как cкачать? Как скачать Маленькая барабанщица через торрент | qTorrent

% Раздел Тема Автор DL S | L
Зарубежные сериалы [ 27.71 GB ] Маленькая барабанщица / The Little Drummer Girl / Сезон: 1 / Серии 1-6 из 6 [2018 WEB-DL 1080p] [DVO] killermax2013 Скачать
1 | 0
Видео для КПК и Смартфонов [ 1.28 GB ] Маленькая барабанщица / The Little Drummer Girl / Сезон: 1 / Серии 1-6 из 6 [2018 WEB-DLRip КПК] MVO [LostFilm] sergey82 Скачать
1 | 0
Зарубежные сериалы [ 5.73 GB ] Маленькая барабанщица / The Little Drummer Girl / Сезон: 1 / Серии 1-6 из 6 [2018 WEB-DLRip] [MVO] killermax2013 Скачать
1 | 0
Зарубежные сериалы [ 25.94 GB ] Маленькая барабанщица / The Little Drummer Girl / Сезон: 1 / Серии: 1-6 из 6 [2018 WEBRip 1080p] [MVO] killermax2013 Скачать
2 | 0
Зарубежные сериалы [ 25.94 GB ] Маленькая барабанщица / The Little Drummer Girl / Сезон: 1 / Серии 1-6 из 6 [2018 WEB-DL 1080p] [MVO] killermax2013 Скачать
1 | 0
Зарубежные сериалы [ 8.97 GB ] Маленькая барабанщица / The Little Drummer Girl / Сезон: 1 / Серии 1-6 из 6 [2018 WEB-DL 720p] [DVO] killermax2013 Скачать
1 | 0
Зарубежные сериалы [ 4.26 GB ] Маленькая барабанщица / The Little Drummer Girl / Сезон: 1 / Серии 1-6 из 6 [2018 WEB-DLRip] [MVO] killermax2013 Скачать
3 | 0


>> Регистрируемся здесь <<






Отзывы и комментарии о схеме читаем и пишем здесь: ---> Отзывы и комментарии о схеме

Новые благодарочки в телеграм довольных пользователей:
скриншот   скриншот   скриншот   скриншот   скриншот
    Дорогой пользователь! Огромная просьба, поблагодарите релизера, оцените раздачу и оставьте свои комментарий, если Вы скачали Маленькая барабанщица через торрент бесплатно! Внесите свою лепту в развитие PiratBit!
    Комментировать посты могут только пользователи прошедшие не сложную регистрацию
    Показать сообщения:    

    Маленькая барабанщица через торрент
    Скачать бесплатно Маленькая барабанщица
    Маленькая барабанщица скачать торрент
    Маленькая барабанщица смотреть онлайн
    Cкачать фильм Маленькая барабанщица бесплатно
    Маленькая барабанщица скачать торрент в хорошем качестве
    Маленькая барабанщица смотреть онлайн бесплатно в хорошем качестве


    Вы не можете начинать темы
    Вы не можете отвечать на сообщения
    Вы не можете редактировать свои сообщения
    Вы не можете удалять свои сообщения
    Вы не можете голосовать в опросах
    Вы не можете прикреплять файлы к сообщениям
    Вы можете скачивать файлы