Ссылка на приватное зеркало нашего сайта всего за 1$. Внимание количество ограничено!!!

2 сезон

iTunes

1 сезон

1

2 сезон

2 сезон

iTunes

1 сезон

RePack

30

Новинка

ВАЖНО

ИГРА 18+

pack

RePack

MK11
pack

Забери бонус

RePack

jed

!!Акция!!

Alien_Rage

RePack

fifa19

RePack

Assassins Creed: Odyssey

RePack

NEED FOR SPEED™ PAYBACK

4 сезон

9 сезон

Бесстыжие 9 сезон

Все сериалы

все сериалы на PB.wtf

RePack

FAR CRY 5
  

Стартап / StartUp / Сезон: 3 / Серия: 1-10 из 10 (Бен Кетаи) [2018, Триллер, криминал, WEBRip] [MVO] (Profix Media) pb.wtf

Стартап через торрент pb.wtf

Размер: 5.18 GB | Добавлен: 2 года назад | Торрент скачан:45 раз
Скачать  

03-11-2018 20:19 Стартап Скачать торрент  

Стартап | StartUp

Год выпуска: 2018
Страна: США
Жанр: Триллер, криминал
Продолжительность: ~ 00:50:00
Перевод: Профессиональный (многоголосый закадровый) *Profix Media*
Субтитры: Нет

Режиссёр: Бен Кетаи

В ролях: Мартин Фриман, Адам Броди, Эди Гатеги, Кристен Ариза, Эшли Хиншоу, Келвин Харрисон и другие

Описание: Нередко хорошая идея, существующая где-то в умах гениального конструктора или стратега не воплощается в реальность из-за того, что нет подходящих ресурсов для ее осуществления. Так и оказывается в этот раз. Cериал рассказывает о трех разных людях, занимающихся реализацией одной и той же идеи. Один из них Фил Раск, который является агентом ФБР. Он расследует преступления в мире финансов. Он знакомится с Ником Талмоном, молодым человеком, который является сыном одного из подозреваемых в ведущемся деле. Тут начинается разворачиваться нешуточная семейная драма, которая переплетается с расследованием.

rating скриншот  

Автор рипа -- JuSSiKa

Качество: WEBRip
Формат: AVI
Видео кодек: XviD
Аудио кодек: MP3
Видео: 720x400, 23.976 fps, XviD ~1500 kbps avg
Аудио 1: Rus.: MP3, 48 kHz, 2 ch, 128 kbps
Аудио 2: Eng.: MP3, 48 kHz, 2 ch, 128 kbps
Полное имя : StartUp.S03.WEBRip.RusEng.Profix.Media\StartUp.S03E02.WEBRip.RusEng.Profix.Media.J.avi
Формат : AVI
Формат/Информация : Audio Video Interleave
Размер файла : 510 Мбайт
Продолжительность : 40 м. 18 с.
Общий поток : 1770 Кбит/сек
Программа кодирования : VirtualDubMod 1.5.10.3 (build 2550/release)
Библиотека кодирования : VirtualDubMod build 2550/release

Видео
Идентификатор : 0
Формат : MPEG-4 Visual
Профиль формата : Advanced Simple@L5
Настройки формата : BVOP1
Параметр BVOP формата : 1
Параметр QPel формата : Нет
Параметр GMC формата : Без точки перехода
Параметр матрицы формата : Default (H.263)
Идентификатор кодека : XVID
Идентификатор кодека/Подсказка : XviD
Продолжительность : 40 м. 18 с.
Битрейт : 1500 Кбит/сек
Ширина : 720 пикселей
Высота : 400 пикселей
Соотношение сторон : 16:9
Частота кадров : 23,976 (24000/1001) кадра/сек
Цветовое пространство : YUV
Субдискретизация насыщенности : 4:2:0
Битовая глубина : 8 бит
Тип развёртки : Прогрессивная
Метод сжатия : С потерями
Бит/(Пиксели*Кадры) : 0.217
Размер потока : 432 Мбайт (85%)
Библиотека кодирования : XviD 1.2.1 (UTC 2008-12-04)

Аудио #1
Идентификатор : 1
Формат : MPEG Audio
Версия формата : Version 1
Профиль формата : Layer 3
Настройки формата : Joint stereo / MS Stereo
Режим : Joint stereo
Расширение режима : MS Stereo
Идентификатор кодека : 55
Идентификатор кодека/Подсказка : MP3
Продолжительность : 40 м. 18 с.
Вид битрейта : Постоянный
Битрейт : 128 Кбит/сек
Каналы : 2 канала
Частота : 48,0 КГц
Метод сжатия : С потерями
Размер потока : 36,9 Мбайт (7%)
Выравнивание : Соединение по промежуткам
Продолжительность промежутка : 42 мс. (1,00 видеокадр)
Время предзагрузки промежутка : 504 мс.

Аудио #2
Идентификатор : 2
Формат : MPEG Audio
Версия формата : Version 1
Профиль формата : Layer 3
Настройки формата : Joint stereo / MS Stereo
Режим : Joint stereo
Расширение режима : MS Stereo
Идентификатор кодека : 55
Идентификатор кодека/Подсказка : MP3
Продолжительность : 40 м. 18 с.
Вид битрейта : Постоянный
Битрейт : 128 Кбит/сек
Каналы : 2 канала
Частота : 48,0 КГц
Метод сжатия : С потерями
Размер потока : 36,9 Мбайт (7%)
Выравнивание : Соединение по промежуткам
Продолжительность промежутка : 42 мс. (1,00 видеокадр)
Время предзагрузки промежутка : 504 мс.
скриншот   скриншот   скриншот  
Внимание! Раздача ведётся путём добавления новых серий; при каждом добавлении создётся новый торрент. Чтобы начать докачку новой серии, пользователям необходимо сделать следующее:
Остановить скачивание.
Удалить старый торрент у себя из клиента (старые серии удалять не надо).
Скачать новый торрент и запустить его у себя в клиенте вместо старого, при этом указать клиенту путь в старую папку куда и должно происходить скачивание новых серий.
Ваш клиент при этом должен произвести хеширование (проверку) старой папки (если не производит сам - помогите ему сделать это), и будет докачивать только те серии которых у вас ещё нет. Старые серии при этом не удаляются, а продолжают раздаваться!
Eсли вы уже удалили старые серии, то предотвратить повторную закачку старых серий можно, отжав галочку в соответсвующих местах при запуске нового торрента. По возможности, желательно не удалять старые серии как можно дольше чтобы релизёр не столько продолжал раздавать старые серии, а смог сконцентрироваться на новых.
pb.wtf



Скачать Стартап через торрент http://i91.fastpic.ru/big/2017/1001/40/61d581339700ed83b39653f91efce740.png Скачать фильм Стартап через торрент бесплантно в хорошем качестве Описание: Нередко хорошая идея, существующая где-то в умах гениального конструктора или стратега не воплощается в реальность из-за того, ... 10 10 5
Торрент: Зарегистрирован [2018-11-20 17:54] · скачан: 45 раз
Статус: √ проверено
Размер: 5.18 GB
Как cкачать? Как скачать Стартап через торрент | qTorrent

% Раздел Тема Автор DL S | L
Зарубежные сериалы [ 32.67 GB ] Стартап / StartUp / Сезон: 3 / Серии: 1-10 из 10 [2018 WEBRip 1080p] [MVO] killermax2013 Скачать
1 | 0
Зарубежные сериалы [ 8.46 GB ] Стартап / StartUp / Сезон: 3 / Серия: 1-10 из 10 [2018 WEBRip 720p] [DVO] killermax2013 Скачать
1 | 0
Зарубежные сериалы [ 18.88 GB ] Стартап / StartUp / Сезон: 3 / Серия: 1-10 из 10 [2018 WEBRip 1080p] [MVO] killermax2013 Скачать
1 | 0

28-11-2019 20:33  

Отключить всю рекламу на сайте

    Дорогой пользователь! Огромная просьба, поблагодарите релизера, оцените раздачу и оставьте свои комментарий, если Вы скачали Стартап через торрент бесплатно! Внесите свою лепту в развитие PiratBit!
    Комментировать посты могут только пользователи прошедшие не сложную регистрацию
    Показать сообщения:    

    Стартап через торрент
    Скачать бесплатно Стартап
    Стартап скачать торрент
    Стартап смотреть онлайн
    Cкачать фильм Стартап бесплатно
    Стартап скачать торрент в хорошем качестве
    Стартап смотреть онлайн бесплатно в хорошем качестве


    Вы не можете начинать темы
    Вы не можете отвечать на сообщения
    Вы не можете редактировать свои сообщения
    Вы не можете удалять свои сообщения
    Вы не можете голосовать в опросах
    Вы не можете прикреплять файлы к сообщениям
    Вы можете скачивать файлы