Ссылка на приватное зеркало нашего сайта всего за 1$. Внимание количество ограничено!!!

2 сезон

iTunes

1 сезон

1

2 сезон

2 сезон

iTunes

1 сезон

RePack

30

Ultimate

ВАЖНО

ИГРА 18+

pack

RePack

MK11
pack

Забери бонус

RePack

jed

!!Акция!!

Alien_Rage

RePack

fifa19

RePack

Assassins Creed: Odyssey

RePack

NEED FOR SPEED™ PAYBACK

4 сезон

9 сезон

Бесстыжие 9 сезон

Все сериалы

все сериалы на PB.wtf

RePack

FAR CRY 5
  

G.I. Joe: Бросок кобры 2 / G.I. Joe: Retaliation (Джон М. Чу) [2013 г., фантастика, боевик, триллер, приключения, BDRip 1080p, HEVC (10bit), Дубляж (Лицензия)] pb.wtf

G.I. Joe: Бросок кобры 2 через торрент pb.wtf

Размер: 7.46 GB | Добавлен: 2 года назад | Торрент скачан:148 раз
Скачать  

04-11-2018 07:33 G.I. Joe: Бросок кобры 2 Скачать торрент  

G.I. Joe: Бросок кобры 2 / G.I. Joe: Retaliation
Год выпуска: 2013
Страна: США
Жанр: фантастика, боевик, триллер, приключения
Продолжительность: 01:50:15
Перевод: Дубляж (Лицензия)
Субтитры: нет

Режиссер: Джон М. Чу

rating

В ролях: Дуэйн Джонсон, Эдрианн Палики, Брюс Уиллис, Рэй Парк

Описание: Во второй части отряд «G.I. Joe» вновь объявит вызов группировке «Кобра» и вступит в противостояние с правительством.
Доп. информация: -
H.265/HEVC (High Efficiency Video Coding) - это новый стандарт кодирования видео.
- Стандарт H.265/HEVC является логическим продолжением стандарта
H.264/AVC (Advanced Video Coding), и характеризуется более эффективными
алгоритмами сжатия, а также поддержкой высокого разрешения вплоть до 8K UHD
(8192x4320). Первая версия стандарта H.265 была опубликована в начале 2013 года.
- Рипы в фомате HEVC поддерживается не всеми аппаратными проигрывателями.
- Для корректного воспроизведения может потребоваться обновление ПО.
- Владельцам несовместимого железа просьба не беспокоить,
есть альтернативные релизы.
Качество: BDRip 1080p
Формат: MKV
Видео кодек: H.265
Аудио кодек: AC3
Видео: 1920x800, ~8850 Kbps
Аудио: AC3, 6 ch, 640 Kbps - Дублированный
Релиз от: HANNIBAL


Общее
Уникальный идентификатор : 331444166777905215014648200891249272045 (0xF959D316F44B80304784501FAAD924ED)
Полное имя : F:\РАЗДАЧИ\G.I. Joe Retaliation (2013) BDRip 1080p [HEVC] 10bit.mkv
Формат : Matroska
Версия формата : Version 4 / Version 2
Размер файла : 7,46 Гбайт
Продолжительность : 1 ч. 50 м.
Общий поток : 9683 Кбит/сек
Название фильма : G.I. Joe: Бросок кобры 2
Программа кодирования : XviD4PSP 7.0.458 DAILY
Библиотека кодирования : Lavf57.71.100
ErrorDetectionType : Per level 1
Attachments : poster.jpg
ACTORS : Дуэйн Джонсон, Эдрианн Палики,
COUNTRY : США
DATE : 2013
DIRECTOR : Джон М. Чу
ENCODING_INFO : MPEGTS > MKV 1080p 10-bit / H264 > X265 CRF 18.0 Medium / AC3 > AC3 CBR 640kbps
GENRE : фантастика, боевик, триллер
HD_VIDEO : 1
Язык : und
MEDIA_TYPE : 9
ORIGINAL_TITLE : G.I. Joe: Retaliation

Видео
Идентификатор : 1
Формат : HEVC
Формат/Информация : High Efficiency Video Coding
Профиль формата : Main 10@L4.1@High
Идентификатор кодека : V_MPEGH/ISO/HEVC
Продолжительность : 1 ч. 50 м.
Битрейт : 8850 Кбит/сек
Ширина : 1920 пикселей
Высота : 800 пикселей
Соотношение сторон : 2,40:1
Режим частоты кадров : Постоянный
Частота кадров : 23,976 (24000/1001) кадра/сек
Цветовое пространство : YUV
Субдискретизация насыщенности : 4:2:0
Битовая глубина : 10 бит
Бит/(Пиксели*Кадры) : 0.240
Размер потока : 6,82 Гбайт (91%)
Библиотека кодирования : x265 2.8+74-fd517ae68f93:[Windows][GCC 7.3.0][64 bit] 10bit
Настройки программы : cpuid=1111039 / frame-threads=13 / numa-pools=12 / wpp / no-pmode / no-pme / no-psnr / no-ssim / log-level=3 / input-csp=1 / input-res=1920x800 / interlace=0 / total-frames=0 / level-idc=41 / high-tier=1 / uhd-bd=0 / ref=5 / allow-non-conformance / no-repeat-headers / annexb / no-aud / no-hrd / info / hash=0 / no-temporal-layers / no-open-gop / min-keyint=24 / keyint=240 / gop-lookahead=0 / bframes=8 / b-adapt=2 / b-pyramid / bframe-bias=0 / rc-lookahead=40 / lookahead-slices=5 / scenecut=40 / radl=0 / no-intra-refresh / ctu=64 / min-cu-size=8 / rect / amp / max-tu-size=32 / tu-inter-depth=1 / tu-intra-depth=1 / limit-tu=0 / rdoq-level=0 / dynamic-rd=0.00 / no-ssim-rd / signhide / no-tskip / nr-intra=0 / nr-inter=0 / no-constrained-intra / no-strong-intra-smoothing / max-merge=2 / limit-refs=3 / no-limit-modes / me=3 / subme=7 / merange=57 / temporal-mvp / weightp / no-weightb / no-analyze-src-pics / deblock=-3:-3 / no-sao / no-sao-non-deblock / rd=3 / no-early-skip / rskip / no-fast-intra / no-tskip-fast / no-cu-lossless / no-b-intra / no-splitrd-skip / rdpenalty=0 / psy-rd=2.00 / psy-rdoq=0.00 / no-rd-refine / no-lossless / cbqpoffs=0 / crqpoffs=0 / rc=crf / crf=18.0 / qcomp=0.60 / qpstep=4 / stats-write=0 / stats-read=0 / vbv-maxrate=50000 / vbv-bufsize=50000 / vbv-init=0.9 / crf-max=0.0 / crf-min=0.0 / ipratio=1.40 / pbratio=1.30 / aq-mode=1 / aq-strength=1.00 / cutree / zone-count=0 / no-strict-cbr / qg-size=32 / no-rc-grain / qpmax=69 / qpmin=0 / no-const-vbv / sar=1 / overscan=0 / videoformat=5 / range=0 / colorprim=1 / transfer=1 / colormatrix=1 / chromaloc=0 / display-window=0 / max-cll=0,0 / min-luma=0 / max-luma=1023 / log2-max-poc-lsb=8 / vui-timing-info / vui-hrd-info / slices=1 / no-opt-qp-pps / no-opt-ref-list-length-pps / no-multi-pass-opt-rps / scenecut-bias=0.05 / no-opt-cu-delta-qp / no-aq-motion / no-hdr / no-hdr-opt / no-dhdr10-opt / no-idr-recovery-sei / analysis-reuse-level=5 / scale-factor=0 / refine-intra=0 / refine-inter=0 / refine-mv=0 / no-limit-sao / ctu-info=0 / no-lowpass-dct / refine-mv-type=0 / copy-pic=1 / max-ausize-factor=1.0 / no-dynamic-refine / no-single-sei
Default : Да
Forced : Нет
Цветовой диапазон : Limited
Основные цвета : BT.709
Характеристики трансфера : BT.709
Коэффициенты матрицы : BT.709

Аудио
Идентификатор : 2
Формат : AC-3
Формат/Информация : Audio Coding 3
Идентификатор кодека : A_AC3
Продолжительность : 1 ч. 50 м.
Вид битрейта : Постоянный
Битрейт : 640 Кбит/сек
Каналы : 6 каналов
Расположение каналов : Front: L C R, Side: L R, LFE
Частота : 48,0 КГц
Частота кадров : 31,250 кадров/сек (1536 SPF)
Битовая глубина : 16 бит
Метод сжатия : С потерями
Размер потока : 505 Мбайт (7%)
ServiceKind/String : Complete Main
Default : Да
Forced : Нет

Меню
00:00:00.000 : :Глава 1
00:06:42.819 : :Глава 2
00:14:15.688 : :Глава 3
00:21:35.335 : :Глава 4
00:29:09.122 : :Глава 5
00:36:53.753 : :Глава 6
00:45:04.284 : :Глава 7
00:50:43.415 : :Глава 8
00:57:38.788 : :Глава 9
01:05:49.278 : :Глава 10
01:12:57.247 : :Глава 11
01:21:32.846 : :Глава 12
01:29:55.765 : :Глава 13
01:37:40.688 : :Глава 14
01:44:48.490 : :Глава 15

pb.wtf



Скачать G.I. Joe: Бросок кобры 2 через торрент https://d.radikal.ru/d12/1811/10/5ec93e992d3b.jpg Скачать фильм G.I. Joe: Бросок кобры 2 через торрент бесплантно в хорошем качестве Описание: Во второй части отряд «G.I. Joe» вновь объявит вызов группировке «Кобра» и вступит в противостояние с правительством.Доп. ... 10 10 4
Info! Золотая раздача, скачанное не засчитывается.
Торрент: Зарегистрирован [2018-11-04 07:33] · скачан: 148 раз
Статус: √ проверено
Размер: 7.46 GB
Как cкачать? Как скачать G.I. Joe: Бросок кобры 2 через торрент | qTorrent

% Раздел Тема Автор DL S | L
Ultra HD (UHD: 2K, 4K, 8K) — видео сверхвысокой чёткости [ 46.07 GB ] G.I. Joe: Бросок кобры 2 / G.I. Joe: Retaliation [2013 UHD BDRemux 2160p] DUB [Dolby Vision TV] [Театральная версия] sheker187 Скачать
1 | 0
T Фильмы [HD 720p, 1080p] (Хороший звук DUB, MVO) [ 4.75 GB ] G.I. Joe: Бросок кобры 2 / G.I. Joe: Retaliation [EXTENDED] [2013 BDRip 720p [ Чистый звук] Ворон Скачать
1 | 0
Ultra HD (UHD: 2K, 4K, 8K) — видео сверхвысокой чёткости [ 54.11 GB ] G.I. Joe: Бросок кобры 2 / G.I. Joe: Retaliation [2013 UHD BDRemux 2160p] [Dolby Vision] [Театральная версия] sheker187 Скачать
1 | 0
Ultra HD (UHD: 2K, 4K, 8K) — видео сверхвысокой чёткости [ 61.35 GB ] G.I. Joe: Бросок кобры 2 / G.I. Joe: Retaliation [2013 UHD Blu-ray EUR 2160p] [Dolby Vision] [Театральная версия] sheker187 Скачать
1 | 0
Фильмы с авторской озвучкой [ 2.91 GB ] G.I. Joe: Бросок кобры 2 / G.I. Joe: Retaliation [2013 BDRip-AVC] [Extended] AVO [А.Гаврилов] potroks Скачать
1 | 0
3D Фильмы [ 6.88 GB ] G.I. Joe: Бросок кобры 2 в 3D / G.I. Joe: Retaliation in 3D [2013 BDRip 1080p + Оригинал] Анаглиф slaventi-69 Скачать
1 | 0
Фильмы 2013 [DVDrip, WEB-DLRip, HDrip] [ 1.46 GB ] G.I. Joe: Бросок кобры 2 / G.I. Joe: Retaliation [2013 HDRip ] Seedtank Скачать
1 | 0

28-11-2019 20:33  

Отключить всю рекламу на сайте

06-07-2019 02:03 G.I. Joe: Бросок кобры 2 Скачать торрент  

А чего на раздаче никого нет? Поддайте гари, народ! pb.wtf



    Дорогой пользователь! Огромная просьба, поблагодарите релизера, оцените раздачу и оставьте свои комментарий, если Вы скачали G.I. Joe: Бросок кобры 2 через торрент бесплатно! Внесите свою лепту в развитие PiratBit!
    Комментировать посты могут только пользователи прошедшие не сложную регистрацию
    Показать сообщения:    

    G.I. Joe: Бросок кобры 2 через торрент
    Скачать бесплатно G.I. Joe: Бросок кобры 2
    G.I. Joe: Бросок кобры 2 скачать торрент
    G.I. Joe: Бросок кобры 2 смотреть онлайн
    Cкачать фильм G.I. Joe: Бросок кобры 2 бесплатно
    G.I. Joe: Бросок кобры 2 скачать торрент в хорошем качестве
    G.I. Joe: Бросок кобры 2 смотреть онлайн бесплатно в хорошем качестве


    Вы не можете начинать темы
    Вы не можете отвечать на сообщения
    Вы не можете редактировать свои сообщения
    Вы не можете удалять свои сообщения
    Вы не можете голосовать в опросах
    Вы не можете прикреплять файлы к сообщениям
    Вы можете скачивать файлы