Мега распродажа FORZA HORIZON 4 ULTIMATE+ВСЕ DLC+ОНЛАЙН всего за 499р. 349 руб. (супер цена). Внимание количество ограничено!!!

iTunes

1+1

iTunes

мы

iTunes

1

1 сезон

Чернобыль

1 сезон

Ральф против интернета

Лицензия

ПШазам

8 сезон

Игра престолов

Лицензия

30
pack

ВАЖНО

!!Акция!!

Alien_RageХит недели

RePack

Resident Evil 21

ИГРА 18+

pack

RePack

Metro:Exodus

!!Акция!!

Alien_Rage

RePack

fifa19

RePack

Assassins Creed: Odyssey

RePack

NEED FOR SPEED™ PAYBACK

3 сезон

9 сезон

Бесстыжие 9 сезон

Все сериалы

все сериалы на PB.wtf

RePack

FAR CRY 5
Ребята, катастрофически не хватает 2730р. для оплаты серверов за ИЮНЬ (всвязи с блокировками трафик упал в 3 раза), 1-2р., выручайте.
  

Суперсемейка 2 в 3Д / Incredibles 2 3D (Брэд Бёрд / Brad Bird) [2018, мультфильм, фантастика, боевик, комедия, приключен, BDRip, 1080p] OverUnder / Вертикальная стереопара pb.wtf

Суперсемейка 2 в 3Д через торрент pb.wtf

Размер: 14.42 GB | Добавлен: 7 мес. назад | Торрент скачан:37 раз
Скачать  

04-11-2018 11:01 Суперсемейка 2 в 3Д Скачать торрент  

Суперсемейка 2 / Incredibles 2

Год выпуска: 2018
Страна: США (Pixar Animation Studios, Walt Disney Pictures)
Жанр: мультфильм, фантастика, боевик, комедия, приключения, семейный
Продолжительность: 01:57:50

Перевод: Профессиональный дублированный(лицензия)
Русские субтитры: нет
Режиссер: Брэд Бёрд / Brad Bird

Роли озвучивали: Крэйг Т. Нельсон, Холли Хантер, Сара Вауэлл, Хак Милнер, Кэтрин Кинер, Илай Фучиле, Боб Оденкёрк, Сэмюэл Л. Джексон, Майкл Бёрд, София Буш

Описание: После событий первой части суперсемейка пользуется повышенным вниманием со стороны журналистов. Неожиданно оказалось, что обаятельная Миссис Исключительная гораздо лучше смотрится на экране телевизора, чем её муж. Мистеру Исключительному все чаще приходится сидеть дома и приглядывать за детьми, у каждого из которых есть свои причины быть недовольным собственными суперспособностями. Однако семейным проблемам предстоит отступить на второй план, когда окажется, что спокойствию Суперсемейки угрожает новый могущественный враг.

Сэмпл: http://sendfile.su/1458989

Качество: BDrip, 1080p
Контейнер: MKV
Формат 3D: OverUnder / Вертикальная стереопара
Порядок ракурсов: левый ракурс первый
Видео кодек: x264
Аудио кодек: AC3
Видео: AVC / High@L5.0 / 23,976 fps / 1920х2160 / 15,9 Мбит/сек
Аудио: Русский / AC3 / 48 KHz / 5.1 ch / 640 Кбит/сек(лицензия)
Аудио 2: Английский / AC3 / 48 KHz / 5.1 ch / 640 Кбит/сек

ВНИМАНИЕ ! На встроенных ТВ-плеерах работать не будет!!!

ТВ Samsung в названии которого есть надпись Ultra HD , и LG Ultra HD 800 серии, LG C6P, Xiaomi Mi TV 2 воспроизводят полные стереопары встроенными плеерами
Железные плееры на которых воспроизводятся полные стереопары:Popcorn C-200 , Dune HD Smart D1 , Dune HD DUO , Dune HD Smart H1 , Dune HD Smart B1 , Dune HD Max , Dune HD TV-303D, Dune HD TV-102, Dune HD Base 3D, Philips HMP7001, Aura HD, MECOOL BB2
Чтобы изображение было на весь экран в плеере выставляем, если рип 1920х1600 - то выставляем 2.35:1 , если 1920х2160 - то выставляем 16:9

02.12.2018. Релиз обновлён - русская звуковая дорога iTunes заменена на лицензию. .
Желающие, скачайте заново торрент-файл.
Общее
Уникальный идентификатор : 230167706835981760605349197193714799662 (0xAD28B0191391168DBEB9402C0F43142E)
Полное имя : G:\видео\Incredibles 2.Rip by SeRoGa00.mkv
Формат : Matroska
Версия формата : Version 2
Размер файла : 14,2 Гбайт
Продолжительность : 1 ч. 57 м.
Общий поток : 17,3 Мбит/сек
Дата кодирования : UTC 2018-11-04 10:03:10
Программа кодирования : mkvmerge v3.4.0 ('Rapunzel') сборка от May 15 2010 09:38:20
Библиотека кодирования : libebml v0.8.0 + libmatroska v0.9.0

Видео
Идентификатор : 1
Формат : AVC
Формат/Информация : Advanced Video Codec
Профиль формата : High@L5.0
Параметр CABAC формата : Да
Параметр ReFrames формата : 4 кадра
Идентификатор кодека : V_MPEG4/ISO/AVC
Продолжительность : 1 ч. 57 м.
Битрейт : 15,9 Мбит/сек
Ширина : 1920 пикселей
Высота : 2160 пикселей
Соотношение сторон : 0,889
Частота кадров : 23,976 кадра/сек
Цветовое пространство : YUV
Субдискретизация насыщенности : 4:2:0
Битовая глубина : 8 бит
Тип развёртки : Прогрессивная
Бит/(Пиксели*Кадры) : 0.160
Размер потока : 13,1 Гбайт (92%)
Заголовок : Rip by SeRoGa00
Библиотека кодирования : x264 core 155 r2901 7d0ff22
Настройки программы : cabac=1 / ref=4 / deblock=1:-3:-3 / analyse=0x3:0x113 / me=umh / subme=10 / psy=1 / psy_rd=1.00:0.15 / mixed_ref=1 / me_range=24 / chroma_me=1 / trellis=2 / 8x8dct=1 / cqm=0 / deadzone=21,11 / fast_pskip=1 / chroma_qp_offset=-3 / threads=18 / lookahead_threads=6 / sliced_threads=0 / nr=0 / decimate=0 / interlaced=0 / bluray_compat=0 / constrained_intra=0 / bframes=10 / b_pyramid=2 / b_adapt=2 / b_bias=0 / direct=3 / weightb=1 / open_gop=0 / weightp=2 / keyint=250 / keyint_min=23 / scenecut=40 / intra_refresh=0 / rc_lookahead=60 / rc=crf / mbtree=1 / crf=16.5 / qcomp=0.60 / qpmin=10 / qpmax=69 / qpstep=4 / vbv_maxrate=40000 / vbv_bufsize=40000 / crf_max=0.0 / nal_hrd=none / filler=0 / ip_ratio=1.40 / aq=1:1.00
Язык : English
Default : Нет
Forced : Нет

Аудио #1
Идентификатор : 2
Формат : AC-3
Формат/Информация : Audio Coding 3
Расширение режима : CM (complete main)
Параметр Endianness формата : Big
Идентификатор кодека : A_AC3
Продолжительность : 1 ч. 57 м.
Вид битрейта : Постоянный
Битрейт : 640 Кбит/сек
Каналы : 6 каналов
Расположение каналов : Front: L C R, Side: L R, LFE
Частота : 48,0 КГц
Битовая глубина : 16 бит
Метод сжатия : С потерями
Размер потока : 324 Мбайт (2%)
Язык : Russian
Default : Да
Forced : Нет

Аудио #2
Идентификатор : 3
Формат : AC-3
Формат/Информация : Audio Coding 3
Расширение режима : CM (complete main)
Параметр Endianness формата : Big
Идентификатор кодека : A_AC3
Продолжительность : 1 ч. 57 м.
Вид битрейта : Постоянный
Битрейт : 640 Кбит/сек
Каналы : 6 каналов
Расположение каналов : Front: L C R, Side: L R, LFE
Частота : 48,0 КГц
Битовая глубина : 16 бит
Метод сжатия : С потерями
Размер потока : 540 Мбайт (4%)
Язык : English
Default : Нет
Forced : Нет

Меню
00:00:00.000 : en:00:00:00.000
00:03:22.326 : en:00:03:22.326
00:08:53.615 : en:00:08:53.615
00:09:36.783 : en:00:09:36.783
00:13:38.274 : en:00:13:38.274
00:15:44.735 : en:00:15:44.735
00:21:19.736 : en:00:21:19.736
00:23:28.280 : en:00:23:28.280
00:27:08.792 : en:00:27:08.792
00:28:59.569 : en:00:28:59.569
00:35:10.900 : en:00:35:10.900
00:39:07.844 : en:00:39:07.844
00:42:43.893 : en:00:42:43.893
00:43:42.411 : en:00:43:42.411
00:47:35.351 : en:00:47:35.351
00:48:53.887 : en:00:48:53.887
00:54:15.585 : en:00:54:15.585
00:56:16.038 : en:00:56:16.038
01:00:58.695 : en:01:00:58.695
01:02:01.884 : en:01:02:01.884
01:06:55.510 : en:01:06:55.510
01:09:18.235 : en:01:09:18.235
01:11:28.199 : en:01:11:28.199
01:12:37.685 : en:01:12:37.685
01:14:39.265 : en:01:14:39.265
01:18:00.966 : en:01:18:00.966
01:20:32.534 : en:01:20:32.534
01:25:01.929 : en:01:25:01.929
01:27:59.439 : en:01:27:59.439
01:31:53.923 : en:01:31:53.923
01:33:26.432 : en:01:33:26.432
01:36:25.237 : en:01:36:25.237
01:37:45.192 : en:01:37:45.192
01:43:56.895 : en:01:43:56.895
01:45:35.912 : en:01:45:35.912
01:47:30.902 : en:01:47:30.902
скриншот  

скриншот  

скриншот  

скриншот  

скриншот  

скриншот  
pb.wtf



Скачать Суперсемейка 2 в 3Д через торрент https://a.radikal.ru/a01/1811/53/763cfadb6e07.png Скачать фильм Суперсемейка 2 в 3Д через торрент бесплантно в хорошем качестве Описание: После событий первой части суперсемейка пользуется повышенным вниманием со стороны журналистов. Неожиданно оказалось, что ... 10 10 2
Торрент: Зарегистрирован [2018-12-02 06:25] · скачан: 37 раз
Статус: √ проверено
Размер: 14.42 GB
Как cкачать? Как скачать Суперсемейка 2 в 3Д через торрент | qTorrent



Последний раз редактировалось: serega768 (2018-12-02 06:33), всего редактировалось 2 раз(а)


>> Регистрируемся здесь <<






Отзывы и комментарии о схеме читаем и пишем здесь: ---> Отзывы и комментарии о схеме

Новые благодарочки в телеграм довольных пользователей:
скриншот   скриншот   скриншот   скриншот   скриншот

12-11-2018 22:10 Суперсемейка 2 в 3Д Скачать торрент  

Глюченое видео Чувак , да еще и под висает .
А качество нармалpb.wtf



02-12-2018 06:26 Суперсемейка 2 в 3Д Скачать торрент  

02.12.2018. Релиз обновлён - русская звуковая дорога iTunes заменена на лицензию. .
Желающие, скачайте заново торрент-файл.pb.wtf



    Дорогой пользователь! Огромная просьба, поблагодарите релизера, оцените раздачу и оставьте свои комментарий, если Вы скачали Суперсемейка 2 в 3Д через торрент бесплатно! Внесите свою лепту в развитие PiratBit!
    Комментировать посты могут только пользователи прошедшие не сложную регистрацию
    Показать сообщения:    

    Суперсемейка 2 в 3Д через торрент
    Скачать бесплатно Суперсемейка 2 в 3Д
    Суперсемейка 2 в 3Д скачать торрент
    Суперсемейка 2 в 3Д смотреть онлайн
    Cкачать фильм Суперсемейка 2 в 3Д бесплатно
    Суперсемейка 2 в 3Д скачать торрент в хорошем качестве
    Суперсемейка 2 в 3Д смотреть онлайн бесплатно в хорошем качестве


    Вы не можете начинать темы
    Вы не можете отвечать на сообщения
    Вы не можете редактировать свои сообщения
    Вы не можете удалять свои сообщения
    Вы не можете голосовать в опросах
    Вы не можете прикреплять файлы к сообщениям
    Вы можете скачивать файлы