Anonymous, доброе утро, присоединяйтесь к нам в Telegram!, здесь всегда актуальный адрес сайта, оперативная поддержка и многое другое!

>

5.6

iTunes

7.4

iTunes

5.7

MVO

1

7.7

1 сезон

6.8

iTunes

7.3

1 сезон

13

6.7

1 сезон

8.3

RePack

30

ULTIMATE

pack

9.9

Лицензия

ВАЖНО

ИГРА 18+

pack

7.3

RePack

MK11

7.7

RePack

jed

7.8

RePack

fifa19

8.5

RePack

RDR2

RePack

NEED FOR SPEED™ PAYBACK

4 сезон

9 сезон

Бесстыжие 9 сезон

Все сериалы

все сериалы на PB.wtf

RePack

FAR CRY 5

Anonymous, доброе утро, мы катастрофически не успеваем собрать деньги на оплату серверов, помогите нам пожалуйста 5,10,15р., для нас важна любая помощь . В качестве благодарности мы отключим Вам всю рекламу на сайте (укажите свой ник в строку Ваше имя)!

×
  
Magnet ссылка

Вечерний квартал [112] [2018 г., Юмористическое шоу, концерт, сатира, WEBRip, Оригинальный] pb.wtf

Смотреть онлайн Вечерний квартал | Скачать    Ребята, помогите собрать деньги на оплату серверов!!!

04-11-2018 16:01 Вечерний квартал Скачать торрент  



Оригинальное название: Вечерний квартал [112]

Год выпуска: 2018

Жанр: Юмористическое шоу, концерт, сатира

Режиссер: Студия 95 квартал

В ролях: Владимир Зеленский, Юрий Крапов, Денис Манжосов, Елена Кравец, Евгений Кошевой, Сергей Казанин, Александр Пикалов, Юрий Корявченков, Аркадий Лапухин

Страна: Украина

Студия: Студия 95 квартал

Продолжительность: 01:30:32

Перевод: Не требуется

Субтитры: нет

О фильме:

Однажды веселые ребята из "95-го квартала" решили отметить свой переезд из родного Кривого Рога в Киев, а заодно 10-летие команды новым шоу. Коллектив подобрался душевный, "с огоньком", гости - сплошь знаменитые, а столичная публика - щедрая на аплодисменты. Так родилась самая смешная и популярная передача на отечественном телевидении - "Вечерний квартал". Идея шоу проста: в городе N есть некий модный квартал, в котором тусуются девять смешных жителей. Остальные просто приходят к ним в гости. Правда, гости не совсем обычные: среди них встречаются и богатые, и знаменитые, политики, и дизайнеры, и поп-звезды. Главный критерий - наличие здорового чувства юмора. Без него - никак, так как гостей здесь встречают не хлебом-солью, а розыгрышами и подколками, а те в свою очередь участвуют в скетчах и исполняют музыкальные или танцевальные номера.
Тайная Вечеря Президента или о чем НЕ говорят Депутаты

Вы Всего Лишь СЛУГИ

Мы и Анекдоты Классно ТРАВИМ - Петров и Баширов за Кадром (Пародия)

Песня Российских Шпионов

Наркоманы за Рабиновича - Предвыборный ХАЙП Политиков

KAZKA — ПЛАКАЛА (Пародия)

Выборы - Чемпионат Страны по ВРАНЬЮ - Валерий Жидков

Рекламные Обязательства Евгения Кошевого

Поцелуи с Гайтаной - Kiss Cam

"Мовчати" - Финальная Песня





Файл

Формат: avi

Качество:

Видео: XviD build 73, 720x400 (16:9), 25.000 fps, 1661 Kbps (0.231 bit/pixel)

Звук: 48.0 kHz, AC3, 2/0 ch, 192 kbps
General

Complete name : D:RazdachiKvartal.112.XviD.WEBRip.GeneralFilm.avi

Format : AVI

Format/Info : Audio Video Interleave

File size : 1.09 GiB

Duration : 1 h 23 min

Overall bit rate : 1 863 kb/s

Writing application : VirtualDubMod 1.5.10.3 | www.virtualdub-fr.org || (build 2550/release)

Writing library : VirtualDubMod build 2550/release

Video

ID : 0

Format : MPEG-4 Visual

Format profile : Advanced Simple@L5

Format settings, BVOP : 1

Format settings, QPel : No

Format settings, GMC : No warppoints

Format settings, Matrix : Custom

Codec ID : XVID

Codec ID/Hint : XviD

Duration : 1 h 23 min

Bit rate : 1 661 kb/s

Width : 720 pixels

Height : 400 pixels

Display aspect ratio : 16:9

Frame rate : 25.000 FPS

Color space : YUV

Chroma subsampling : 4:2:0

Bit depth : 8 bits

Scan type : Progressive

Compression mode : Lossy

Bits/(Pixel*Frame) : 0.231

Stream size : 993 MiB (89%)

Writing library : XviD 73

Audio

ID : 1

Format : AC-3

Format/Info : Audio Coding 3

Format settings, Endianness : Big

Codec ID : 2000

Duration : 1 h 23 min

Bit rate mode : Constant

Bit rate : 192 kb/s

Channel(s) : 2 channels

Channel positions : Front: L R

Sampling rate : 48.0 kHz

Frame rate : 31.250 FPS (1536 SPF)

Bit depth : 16 bits

Compression mode : Lossy

Stream size : 115 MiB (10%)

Alignment : Split accross interleaves

Interleave, duration : 40 ms (1.00 video frame)

Interleave, preload duratio : 500 ms

Service kind : Complete Main
скриншот  скриншот  скриншот  
pb.wtf



28-11-2019 20:33  

Отключить всю рекламу на сайте

    Дорогой пользователь! Огромная просьба, поблагодарите релизера, оцените раздачу и оставьте свои комментарий, если Вы скачали Вечерний квартал через торрент бесплатно!
    Комментировать посты могут только пользователи прошедшие не сложную регистрацию
    Показать сообщения:    

    Вечерний квартал через торрент
    Скачать бесплатно Вечерний квартал
    Вечерний квартал скачать торрент
    Вечерний квартал смотреть онлайн
    Cкачать фильм Вечерний квартал бесплатно
    Вечерний квартал скачать торрент в хорошем качестве
    Вечерний квартал смотреть онлайн бесплатно в хорошем качестве


    Вы не можете начинать темы
    Вы не можете отвечать на сообщения
    Вы не можете редактировать свои сообщения
    Вы не можете удалять свои сообщения
    Вы не можете голосовать в опросах
    Вы не можете прикреплять файлы к сообщениям
    Вы не можете скачивать файлы