новый адрес
Ссылка на приватное зеркало всего за 1$. Внимание количество ограничено!!!

iTunes

1+1

iTunes

мы

WEB-DL

1

iTunes

Чернобыль

iTunes

Ральф против интернета

Лицензия

ПШазам

Лицензия

Оно 2

Лицензия

30
pack

Вам бонус

ВАЖНО

!!Акция!!

Alien_RageХит недели

RePack

Resident Evil 21

ИГРА 18+

pack

RePack

jed

!!Акция!!

Alien_Rage

RePack

fifa19

RePack

Assassins Creed: Odyssey

RePack

NEED FOR SPEED™ PAYBACK

3 сезон

9 сезон

Бесстыжие 9 сезон

Все сериалы

все сериалы на PB.wtf

RePack

FAR CRY 5
Ребята, катастрофически не хватает 1900р. для оплаты серверов за Октябрь (всвязи с блокировками трафик упал в 3 раза), 1-2р., выручайте.
  

Судная ночь. Начало / The First Purge (Герард МакМюррей) [2018, ужасы, фантастика, боевик, триллер, BDRip-AVC] DUB [Лицензия] - ExKinoRay pb.wtf

Судная ночь. Начало через торрент pb.wtf

Размер: 2.35 GB | Добавлен: 1 год 1 мес. назад | Торрент скачан:268 раз
Скачать  

04-11-2018 22:48 Судная ночь. Начало Скачать торрент  

Информация о фильме
Название: Судная ночь. Начало
Оригинальное название: The First Purge
Год выпуска: 2018
Жанр: Ужасы, фантастика, боевик, триллер
Режиссер: Герард МакМюррей
В ролях: И'лан Ноэль, Лекс Скотт Дэвис, Джойван Вейд, Магга, Патрик Дарро, Мариса Томей, Лорен Луна Велес, Кристен Солис, Ротими Пол, Мо

Описание:
Хотели бы вы жить в идеальном мире, где нет преступности, безработицы и войн? Единственная плата за такое счастливое будущее - это одна ночь абсолютного беззакония в году. Ночь, когда дозволено всё. Согласны поучаствовать в таком социальном эксперименте?

rating

Страна: США
Студия: Blumhouse Productions, Perfect World Pictures, Platinum Dunes
Продолжительность: 01:37:25
Перевод: Дублированный | Лицензия BD EUR

Формат: MKV
Качество: BDRip-AVC
Видео: MPEG-4 AVC, 1024x428 (2.40:1), 23,976 fps, ~ 2558 kbps
Аудио #01: 48 kHz, AC3, 5.1, 448 Kbps | Лицензия | RUS |
Аудио #02: 48 kHz, AC3, 5.1, 448 Kbps | Оригинал | ENG |
Субтитры: Русские (Forced, full), английские
General
Unique ID : 218697834235633654701717227693769204157 (0xA487ABB7C28BF416A8062AB440C3A1BD)
Complete name : D:\The.First.Purge.2018.BDRip.AVC.ExKinoRay.mkv
Format : Matroska
Format version : Version 2
File size : 2.35 GiB
Duration : 1 h 37 min
Overall bit rate : 3 455 kb/s
Movie name : The First Purge (2018) from ExKinoRay
Encoded date : UTC 2018-11-04 22:10:09
Writing application : mkvmerge v5.6.0 ('Kenya Kane') built on May 27 2012 16:44:04
Writing library : libebml v1.2.3 + libmatroska v1.3.0

Video
ID : 1
Format : AVC
Format/Info : Advanced Video Codec
Format profile : High@L4.1
Format settings, CABAC : Yes
Format settings, ReFrames : 12 frames
Codec ID : V_MPEG4/ISO/AVC
Duration : 1 h 37 min
Bit rate : 2 558 kb/s
Width : 1 024 pixels
Height : 428 pixels
Display aspect ratio : 2.40:1
Frame rate mode : Constant
Frame rate : 23.976 (24000/1001) FPS
Color space : YUV
Chroma subsampling : 4:2:0
Bit depth : 8 bits
Scan type : Progressive
Bits/(Pixel*Frame) : 0.243
Stream size : 1.69 GiB (72%)
Title : Enigma
Writing library : x264 core 152 r2851 ba24899
Encoding settings : cabac=1 / ref=12 / deblock=1:-2:-2 / analyse=0x3:0x113 / me=umh / subme=10 / psy=1 / psy_rd=1.05:0.05 / mixed_ref=1 / me_range=32 / chroma_me=1 / trellis=2 / 8x8dct=1 / cqm=0 / deadzone=21,11 / fast_pskip=0 / chroma_qp_offset=-3 / threads=12 / lookahead_threads=3 / sliced_threads=0 / nr=0 / decimate=0 / interlaced=0 / bluray_compat=0 / constrained_intra=0 / bframes=12 / b_pyramid=2 / b_adapt=2 / b_bias=0 / direct=3 / weightb=1 / open_gop=0 / weightp=2 / keyint=240 / keyint_min=23 / scenecut=40 / intra_refresh=0 / rc=2pass / mbtree=0 / bitrate=2558 / ratetol=1.0 / qcomp=0.60 / qpmin=0 / qpmax=51 / qpstep=4 / cplxblur=20.0 / qblur=0.5 / ip_ratio=1.40 / pb_ratio=1.30 / aq=2:0.90
Language : English
Default : Yes
Forced : No
Color range : Limited
Color primaries : BT.709
Transfer characteristics : BT.709
Matrix coefficients : BT.709

Audio #1
ID : 2
Format : AC-3
Format/Info : Audio Coding 3
Mode extension : CM (complete main)
Format settings, Endianness : Big
Codec ID : A_AC3
Duration : 1 h 37 min
Bit rate mode : Constant
Bit rate : 448 kb/s
Channel(s) : 6 channels
Channel positions : Front: L C R, Side: L R, LFE
Sampling rate : 48.0 kHz
Frame rate : 31.250 FPS (1536 spf)
Compression mode : Lossy
Stream size : 312 MiB (13%)
Title : Dub (Blu-Ray)
Language : Russian
Default : Yes
Forced : No

Audio #2
ID : 3
Format : AC-3
Format/Info : Audio Coding 3
Mode extension : CM (complete main)
Format settings, Endianness : Big
Codec ID : A_AC3
Duration : 1 h 37 min
Bit rate mode : Constant
Bit rate : 448 kb/s
Channel(s) : 6 channels
Channel positions : Front: L C R, Side: L R, LFE
Sampling rate : 48.0 kHz
Frame rate : 31.250 FPS (1536 spf)
Compression mode : Lossy
Stream size : 312 MiB (13%)
Language : English
Default : No
Forced : No

Text #1
ID : 4
Format : UTF-8
Codec ID : S_TEXT/UTF8
Codec ID/Info : UTF-8 Plain Text
Title : Forced
Language : Russian
Default : Yes
Forced : No

Text #2
ID : 5
Format : UTF-8
Codec ID : S_TEXT/UTF8
Codec ID/Info : UTF-8 Plain Text
Title : Full
Language : Russian
Default : No
Forced : No

Text #3
ID : 6
Format : UTF-8
Codec ID : S_TEXT/UTF8
Codec ID/Info : UTF-8 Plain Text
Title : Full
Language : English
Default : No
Forced : No

Text #4
ID : 7
Format : UTF-8
Codec ID : S_TEXT/UTF8
Codec ID/Info : UTF-8 Plain Text
Title : SDH
Language : English
Default : No
Forced : No

Menu
00:00:00.000 : :Chapter 1
00:06:25.635 : :Chapter 2
00:11:59.802 : :Chapter 3
00:16:18.769 : :Chapter 4
00:21:18.110 : :Chapter 5
00:25:56.388 : :Chapter 6
00:30:54.144 : :Chapter 7
00:35:31.212 : :Chapter 8
00:38:41.110 : :Chapter 9
00:43:02.455 : :Chapter 10
00:48:34.411 : :Chapter 11
00:53:35.087 : :Chapter 12
00:55:59.565 : :Chapter 13
00:59:13.049 : :Chapter 14
01:05:25.713 : :Chapter 15
01:09:31.792 : :Chapter 16
01:13:23.733 : :Chapter 17
01:19:47.533 : :Chapter 18
01:24:50.043 : :Chapter 19
01:29:54.931 : :Chapter 20
Релиз от:

Автор релиза: pb.wtf



Скачать Судная ночь. Начало через торрент https://d.radikal.ru/d32/1809/0a/41c2b221b27f.png Скачать фильм Судная ночь. Начало через торрент бесплантно в хорошем качестве Описание: Хотели бы вы жить в идеальном мире, где нет преступности, безработицы и войн? Единственная плата за такое счастливое будущее - ... 9.5 10 10
Info! Золотая раздача, скачанное не засчитывается.
Торрент: Зарегистрирован [2018-11-04 22:48] · скачан: 268 раз
Статус: √ проверено
Размер: 2.35 GB
Как cкачать? Как скачать Судная ночь. Начало через торрент | qTorrent

% Раздел Тема Автор DL S | L
Фильмы 2018 [DVDrip, WEB-DLRip, HDrip] (DUB, MVO) [ 2.66 GB ] Судная ночь. Начало / The First Purge [2018 BDRip-AVC] DUB [] AVO [Чадов] - ExKinoRay Enigma2010 Скачать
1 | 0

28-11-2019 20:33  

Отключить всю рекламу на сайте

    Дорогой пользователь! Огромная просьба, поблагодарите релизера, оцените раздачу и оставьте свои комментарий, если Вы скачали Судная ночь. Начало через торрент бесплатно! Внесите свою лепту в развитие PiratBit!
    Комментировать посты могут только пользователи прошедшие не сложную регистрацию
    Показать сообщения:    

    Судная ночь. Начало через торрент
    Скачать бесплатно Судная ночь. Начало
    Судная ночь. Начало скачать торрент
    Судная ночь. Начало смотреть онлайн
    Cкачать фильм Судная ночь. Начало бесплатно
    Судная ночь. Начало скачать торрент в хорошем качестве
    Судная ночь. Начало смотреть онлайн бесплатно в хорошем качестве


    Вы не можете начинать темы
    Вы не можете отвечать на сообщения
    Вы не можете редактировать свои сообщения
    Вы не можете удалять свои сообщения
    Вы не можете голосовать в опросах
    Вы не можете прикреплять файлы к сообщениям
    Вы можете скачивать файлы