Всегда рабочее зеркало без VPN и Proxy просто перед .vidak.icu напиши любое слово или цифру, Пример http://p887.vidak.icu

Лицензия

MVO

1 сезон

1

1 сезон

iTunes

1 сезон

13

1 сезон

Deluxe

pack

Рекомендуем

Repack

30

ВАЖНО

RePack

MK11

RePack

jed

RePack

fifa19

RePack

RDR2

RePack

NEED FOR SPEED™ PAYBACK

Кинопоиск HD

6 сезон

 Острые козырьки 6 сезон

Все сериалы

все сериалы на PB.wtf

RePack

FAR CRY 5
  
Magnet ссылка

Тор: Рагнарёк / Thor: Ragnarok (Тайка Вайтити) [2017, фантастика, фэнтези, боевик, комедия, приключения, UHD BDRip 2160p] [SDR] DUB + 2xVO pb.wtf

Тор: Рагнарёк через торрент pb.wtf

Размер: 36.4 GB | Добавлен: 3 года 9 мес. назад | Торрент скачан:56 раз
Смотреть онлайн Тор: Рагнарёк | Скачать    Ребята, помогите собрать деньги на оплату серверов!!!

05-11-2018 05:17 Тор: Рагнарёк Скачать торрент  

Тор: Рагнарёк / Thor: Ragnarok«No Hammer. No Problem»
Год выпуска: 2017
Страна: США
Жанр: фантастика, фэнтези, боевик, комедия, приключения
Продолжительность: 02:10:30
Перевод: Дублированный, профессиональный одноголосый, любительский одноголосый
Субтитры: Русские, английские
Режиссер: Тайка Вайтити

В ролях:

Крис Хемсворт (Thor), Том Хиддлстон (Loki), Кейт Бланшетт (Hela), Идрис Эльба (Heimdall), Джефф Голдблюм (Grandmaster), Тесса Томпсон (Valkyrie), Карл Урбан (Skurge), Марк Руффало (Bruce Banner / Hulk), Энтони Хопкинс (Odin), Бенедикт Камбербэтч (Doctor Strange), Тайка Вайтити (Korg, озвучка), Рэйчел Хаус (Topaz)
Описание:
Вернувшись в Асгард в поисках таинственного врага, ведущего охоту на Камни Бесконечности, Тор обнаруживает, что действия его брата Локи, захватившего трон Асгарда, привели к приближению наиболее страшного события - Рагнарёка. По легенде это ознаменует последнюю битву Асгарда, последствием которой станет его полное уничтожение. В попытке предотвратить это событие Тору предстоит прибегнуть к помощи своего товарища из Мстителей - Халка. Вместе им предстоит столкнуться лицом к лицу со злейшим врагом всех девяти миров - огненным демоном Суртуром, целью которого является исполнение пророчества о Рагнарёке и уничтожение девяти миров.
Рейтинг:

MPAA: PG-13 - Детям до 13 лет просмотр не желателен
Качество: UHD BDRip 2160p | SDR
Формат: MKV
Видео: MPEG-4 AVC, 34400 Кбит/с, 3840x1608, 23.976 Кадр/с
Аудио №1: 48.0 kHz, AC3 Dolby Digital, 3/2 (L,R) ch, 640 kbps | RUS / DUB / Лицензия
Аудио №2: 48.0 kHz, AC3 Dolby Digital, 2/0 (L,R) ch, 192 kbps | RUS / Р. Асланов
Аудио №3: 48.0 kHz, AC3 Dolby Digital, 3/2 (L,C,R,l,r) + LFE ch, 384 kbps | RUS / Solod
Аудио №4: 48.0 kHz, TrueHD, 7/1 (L,C,R,l,r) + LFE ch, 4051 kbps | ENG
Аудио №5: 48.0 kHz, AC3 Dolby Digital, 2/0 (L,R) ch, 192 kbps | ENG_Commentary by Director Taika Waititi
Навигация по главам: Есть

Супергеройский фильм, основанный на одноимённых комиксах издательства Marvel Comics. Картина снята новозеландским режиссером Тайкой Вайтити, который смог привлечь внимание Marvel Studios своей комедией «Реальные упыри». «Рагнарёк» является сиквелом ленты «Тор 2: Царство тьмы» и семнадцатым фильмом из Кинематографической вселенной Marvel.
Рагнарёк (в германо-скандинавской мифологии) – это гибель богов и всего мира, следующая за последней битвой между богами и хтоническими чудовищами.
По словам Кевина Файги, события, происходящие в этом фильме, сыграют важную роль в сюжете четвертой части «Мстителей».
Крису Хемсворту пришлось набрать хорошую физическую форму, дабы вжиться в роль Тора. Он следовал строгой диете, ходил в спортзал 6-7 раз в неделю, а также ежедневно употреблял около 6000 килокалорий.
Съемки картины проходили в Голд Косте, Австралия.
Это пятое появление Криса Хемсворта в качестве Тора, до этого он участвовал в фильмах «Тор », «Мстители», «Тор 2: Царство тьмы», «Мстители: Эра Альтрона», а также снялся в сцене после титров «Доктора Стрэнджа».
«Рагнарёк» стал первой совместной работой Сэма Нилла и Джеффа Голдблюма после «Парка Юрского периода».
«Тор» является единственной франшизой киновселенной Марвел, над которой работали три разных режиссера: Кеннет Брана снял первого «Тора», Алан Тэйлор – «Тор 2: Царство тьмы», а Тайка Вайтити поставил триквел.
Кейт Бланшетт согласилась воплотить образ Хелы ради своих детей, которые являются ярыми фанатами комиксов Marvel. Один из них даже получил в фильме камео-роль.
Сюжет «Рагнарёка» разворачивается после событий ленты «Мстители: Эра Альтрона».
Общее
Уникальный идентификатор : 226933996363032644792590501069253807617 (0xAAB9E5DCBDE7E5CC9DA0922E083C8E01)
Полное имя : H:\Thor.Ragnarok.2017.2160p.BluRay.SDR.8bit.UHD.4K.BDRip.x264.Master5.mkv
Формат : Matroska
Версия формата : Version 4 / Version 2
Размер файла : 36,4 Гбайт
Продолжительность : 2 ч. 10 м.
Режим общего битрейта : Переменный
Общий поток : 39,9 Мбит/сек
Название фильма : Thor.Ragnarok.2017.2160p.BluRay.SDR.8bit.UHD.4K.BDRip.x264.Master5
Дата кодирования : UTC 2018-03-01 17:45:37
Программа кодирования : mkvmerge v8.1.0 ('Psychedelic Postcard') 32bit
Библиотека кодирования : libebml v1.3.1 + libmatroska v1.4.2
Обложка : Yes
Attachments : cover.jpg

Видео
Идентификатор : 1
Формат : AVC
Формат/Информация : Advanced Video Codec
Профиль формата : [email protected]
Параметр CABAC формата : Да
Параметр ReFrames формата : 5 кадров
Идентификатор кодека : V_MPEG4/ISO/AVC
Продолжительность : 2 ч. 10 м.
Битрейт : 34,4 Мбит/сек
Ширина : 3840 пикселей
Высота : 1608 пикселей
Соотношение сторон : 2,40:1
Режим частоты кадров : Постоянный
Частота кадров : 23,976 (24000/1001) кадра/сек
Цветовое пространство : YUV
Субдискретизация насыщенности : 4:2:0
Битовая глубина : 8 бит
Тип развёртки : Прогрессивная
Бит/(Пиксели*Кадры) : 0.232
Размер потока : 31,4 Гбайт (86%)
Библиотека кодирования : x264 core 148 r2748 97eaef2
Настройки программы : cabac=1 / ref=5 / deblock=1:-1:-1 / analyse=0x3:0x113 / me=umh / subme=10 / psy=1 / psy_rd=1.00:0.15 / mixed_ref=1 / me_range=48 / chroma_me=1 / trellis=2 / 8x8dct=1 / cqm=0 / deadzone=21,11 / fast_pskip=1 / chroma_qp_offset=-3 / threads=50 / lookahead_threads=4 / sliced_threads=0 / nr=0 / decimate=0 / interlaced=0 / bluray_compat=0 / constrained_intra=0 / bframes=3 / b_pyramid=2 / b_adapt=2 / b_bias=0 / direct=3 / weightb=1 / open_gop=0 / weightp=2 / keyint=250 / keyint_min=23 / scenecut=40 / intra_refresh=0 / rc_lookahead=50 / rc=crf / mbtree=1 / crf=18.0 / qcomp=0.60 / qpmin=0 / qpmax=69 / qpstep=4 / ip_ratio=1.40 / aq=1:1.00
Default : Да
Forced : Нет

Аудио #1
Идентификатор : 2
Формат : AC-3
Формат/Информация : Audio Coding 3
Расширение режима : CM (complete main)
Параметр Endianness формата : Big
Идентификатор кодека : A_AC3
Продолжительность : 2 ч. 10 м.
Вид битрейта : Постоянный
Битрейт : 640 Кбит/сек
Каналы : 6 каналов
Расположение каналов : Front: L C R, Side: L R, LFE
Частота : 48,0 КГц
Частота кадров : 31,250 кадров/сек (1536 spf)
Метод сжатия : С потерями
Размер потока : 597 Мбайт (2%)
Заголовок : DUB / Лицензия
Язык : Russian
Default : Да
Forced : Нет

Аудио #2
Идентификатор : 3
Формат : AC-3
Формат/Информация : Audio Coding 3
Расширение режима : CM (complete main)
Параметр Endianness формата : Big
Идентификатор кодека : A_AC3
Продолжительность : 2 ч. 10 м.
Вид битрейта : Постоянный
Битрейт : 192 Кбит/сек
Каналы : 2 канала
Расположение каналов : Front: L R
Частота : 48,0 КГц
Частота кадров : 31,250 кадров/сек (1536 spf)
Метод сжатия : С потерями
Размер потока : 180 Мбайт (0%)
Заголовок : Р. Асланов
Язык : Russian
Default : Нет
Forced : Нет

Аудио #3
Идентификатор : 4
Формат : AC-3
Формат/Информация : Audio Coding 3
Расширение режима : CM (complete main)
Параметр Endianness формата : Big
Идентификатор кодека : A_AC3
Продолжительность : 2 ч. 10 м.
Вид битрейта : Постоянный
Битрейт : 384 Кбит/сек
Каналы : 6 каналов
Расположение каналов : Front: L C R, Side: L R, LFE
Частота : 48,0 КГц
Частота кадров : 31,250 кадров/сек (1536 spf)
Метод сжатия : С потерями
Размер потока : 359 Мбайт (1%)
Заголовок : Solod
Язык : Russian
Default : Нет
Forced : Нет

Аудио #4
Идентификатор : 5
Формат : Atmos / TrueHD
Идентификатор кодека : A_TRUEHD
Продолжительность : 2 ч. 10 м.
Вид битрейта : Переменный
Битрейт : 4051 Кбит/сек
Максимальный битрейт : 5889 Кбит/сек
Каналы : Object Based / 8 каналов
Расположение каналов : Object Based / Front: L C R, Side: L R, Back: L R, LFE
Частота : / 48,0 КГц
Частота кадров : 1200,000 кадров/сек (40 spf)
Метод сжатия : Без потерь
Задержка видео : 32 мс.
Размер потока : 3,69 Гбайт (10%)
Заголовок : Atmos
Язык : English
Default : Нет
Forced : Нет

Аудио #5
Идентификатор : 6
Формат : AC-3
Формат/Информация : Audio Coding 3
Расширение режима : CM (complete main)
Параметр Endianness формата : Big
Идентификатор кодека : A_AC3
Продолжительность : 2 ч. 10 м.
Вид битрейта : Постоянный
Битрейт : 192 Кбит/сек
Каналы : 2 канала
Расположение каналов : Front: L R
Частота : 48,0 КГц
Частота кадров : 31,250 кадров/сек (1536 spf)
Метод сжатия : С потерями
Размер потока : 179 Мбайт (0%)
Заголовок : Commentary by Director Taika Waititi
Язык : English
Default : Нет
Forced : Нет

Текст #1
Идентификатор : 7
Формат : UTF-8
Идентификатор кодека : S_TEXT/UTF8
Идентификатор кодека/Информация : UTF-8 Plain Text
Продолжительность : 1 ч. 56 м.
Битрейт : 0 бит/сек
Count of elements : 4
Размер потока : 216 байт (0%)
Заголовок : форс
Язык : Russian
Default : Да
Forced : Нет

Текст #2
Идентификатор : 8
Формат : UTF-8
Идентификатор кодека : S_TEXT/UTF8
Идентификатор кодека/Информация : UTF-8 Plain Text
Продолжительность : 2 ч. 9 м.
Битрейт : 84 бит/сек
Count of elements : 1560
Размер потока : 80,0 Кбайт (0%)
Заголовок : 1
Язык : Russian
Default : Нет
Forced : Нет

Текст #3
Идентификатор : 9
Формат : UTF-8
Идентификатор кодека : S_TEXT/UTF8
Идентификатор кодека/Информация : UTF-8 Plain Text
Продолжительность : 2 ч. 9 м.
Битрейт : 76 бит/сек
Count of elements : 1569
Размер потока : 72,3 Кбайт (0%)
Заголовок : 2
Язык : Russian
Default : Нет
Forced : Нет

Текст #4
Идентификатор : 10
Формат : UTF-8
Идентификатор кодека : S_TEXT/UTF8
Идентификатор кодека/Информация : UTF-8 Plain Text
Продолжительность : 2 ч. 9 м.
Битрейт : 49 бит/сек
Count of elements : 1568
Размер потока : 47,1 Кбайт (0%)
Заголовок : полные
Язык : English
Default : Нет
Forced : Нет

Меню
00:00:00.000 : en:Chapter 1
00:06:20.671 : en:Chapter 2
00:14:11.642 : en:Chapter 3
00:22:12.873 : en:Chapter 4
00:26:43.059 : en:Chapter 5
00:31:29.721 : en:Chapter 6
00:35:03.935 : en:Chapter 7
00:42:49.733 : en:Chapter 8
00:48:31.533 : en:Chapter 9
00:59:38.783 : en:Chapter 10
01:07:57.907 : en:Chapter 11
01:17:30.604 : en:Chapter 12
01:27:25.323 : en:Chapter 13
01:36:08.721 : en:Chapter 14
01:42:35.732 : en:Chapter 15
01:49:19.886 : en:Chapter 16
01:54:57.599 : en:Chapter 17
02:00:37.521 : en:Chapter 18
pb.wtf



Скачать Тор: Рагнарёк через торрент https://c.radikal.ru/c15/1811/a3/f6d311db1c1d.png Скачать, смотреть онлайн Тор: Рагнарёк бесплантно в хорошем качестве Описание: Вернувшись в Асгард в поисках таинственного врага, ведущего охоту на Камни Бесконечности, Тор обнаруживает, что действия его ... 10 10 4
Торрент: Зарегистрирован [2018-11-05 05:17] · скачан: 56 раз
Статус: √ проверено
Размер: 36.4 GB
Как cкачать? Как скачать Тор: Рагнарёк через торрент | UTorrent

% Раздел Тема Автор DL S | L
Ultra HD (UHD: 2K, 4K, 8K) — видео сверхвысокой чёткости [ 16.74 GB ] Тор: Рагнарёк / Thor: Ragnarok [2017 UHD BDRip 2160p] DUB + 2xVO sheker187 Скачать
1 | 0
Ultra HD (UHD: 2K, 4K, 8K) — видео сверхвысокой чёткости [ 54.96 GB ] Тор: Рагнарёк / Thor: Ragnarok [2017 UHD BD Remux 2160p] 2xVO+DUB [] bober100 Скачать
1 | 0

28-11-2019 20:33  

Отключить вcю реклaмy на сайте

    Дорогой пользователь! Огромная просьба, поблагодарите релизера, оцените раздачу и оставьте свои комментарий, если Вы скачали Тор: Рагнарёк через торрент бесплатно!
    Комментировать посты могут только пользователи прошедшие не сложную регистрацию
    Показать сообщения:    

    Тор: Рагнарёк через торрент
    Скачать бесплатно Тор: Рагнарёк
    Тор: Рагнарёк скачать торрент
    Тор: Рагнарёк смотреть онлайн
    Cкачать фильм Тор: Рагнарёк бесплатно
    Тор: Рагнарёк скачать торрент в хорошем качестве
    Тор: Рагнарёк смотреть онлайн бесплатно в хорошем качестве


    Вы не можете начинать темы
    Вы не можете отвечать на сообщения
    Вы не можете редактировать свои сообщения
    Вы не можете удалять свои сообщения
    Вы не можете голосовать в опросах
    Вы не можете прикреплять файлы к сообщениям
    Вы можете скачивать файлы