2 сезон

iTunes

MVO

1

2 сезон

iTunes

iTunes

1 сезон

RePack

30

Ultimate

ВАЖНО

ИГРА 18+

pack

RePack

MK11
pack

Легкие деньги

RePack

jed

RePack

fifa19

RePack

RDR2

RePack

NEED FOR SPEED™ PAYBACK

4 сезон

9 сезон

Бесстыжие 9 сезон

Все сериалы

все сериалы на PB.wtf

RePack

FAR CRY 5

Anonymous, добрый день, мы не успеваем собрать деньги на оплату серверов за декабрь и январь, помогите нам пожалуйста в это трудное время. В качестве благодарности мы отключим Вам всю рекламу на сайте (укажите свой ник в строку Ваше имя)!

×
  
Magnet ссылка

Коматозники / Flatliners (Джоэл Шумахер) [1990 г., фантастика, триллер, драма, BDRip 1080p, HEVC (10bit), Дубляж (Лицензия)] pb.wtf

Коматозники через торрент pb.wtf

Размер: 4.58 GB | Добавлен: 2 года 2 мес. назад | Торрент скачан:32 раза
Скачать  

05-11-2018 12:59 Коматозники Скачать торрент  

Коматозники / Flatliners
Год выпуска: 1990
Страна: США
Жанр: фантастика, триллер, драма
Продолжительность: 01:54:12
Перевод: Дубляж (Лицензия)
Субтитры: нет

Режиссер: Джоэл Шумахер

rating

В ролях: Кифер Сазерленд, Джулия Робертс, Кевин Бейкон, Уильям Болдуин, Оливер Плэтт

Описание: Достаточно сделать всего один шаг, чтобы перейти хрупкую грань между жизнью и смертью. Группа студентов-медиков выбрала для своих исследований запретную и опасную область. Будущие врачи решили проникнуть в тайну небытия, которое наступает после остановки сердца.
Доп. информация: -
H.265/HEVC (High Efficiency Video Coding) - это новый стандарт кодирования видео.
- Стандарт H.265/HEVC является логическим продолжением стандарта
H.264/AVC (Advanced Video Coding), и характеризуется более эффективными
алгоритмами сжатия, а также поддержкой высокого разрешения вплоть до 8K UHD
(8192x4320). Первая версия стандарта H.265 была опубликована в начале 2013 года.
- Рипы в фомате HEVC поддерживается не всеми аппаратными проигрывателями.
- Для корректного воспроизведения может потребоваться обновление ПО.
- Владельцам несовместимого железа просьба не беспокоить,
есть альтернативные релизы.
Качество: BDRip 1080p
Формат: MKV
Видео кодек: H.265
Аудио кодек: AC3
Видео: 1920x816, ~5290 Kbps
Аудио: AC3, 6 ch, 448 Kbps - Дублированный
Релиз от: M@kSIMus


Общее
Уникальный идентификатор : 336316628775869810517779380342526056579 (0xFD043A0378E13434AFB85A311D641883)
Полное имя : F:\РАЗДАЧИ\Коматозники (1990) BDRip 1080p [HEVC] 10 bit.mkv
Формат : Matroska
Версия формата : Version 4 / Version 2
Размер файла : 4,58 Гбайт
Продолжительность : 1 ч. 54 м.
Общий поток : 5740 Кбит/сек
Дата кодирования : UTC 2018-07-13 02:51:37
Программа кодирования : mkvmerge v19.0.0 ('Brave Captain') 64-bit
Библиотека кодирования : libebml v1.3.5 + libmatroska v1.4.8
Обложка : Yes
Attachments : cover.jpg

Видео
Идентификатор : 1
Формат : HEVC
Формат/Информация : High Efficiency Video Coding
Профиль формата : Main 10@L5.1@High
Идентификатор кодека : V_MPEGH/ISO/HEVC
Продолжительность : 1 ч. 54 м.
Битрейт : 5290 Кбит/сек
Ширина : 1920 пикселей
Высота : 816 пикселей
Соотношение сторон : 2,35:1
Режим частоты кадров : Постоянный
Частота кадров : 23,976 (24000/1001) кадра/сек
Цветовое пространство : YUV
Субдискретизация насыщенности : 4:2:0
Битовая глубина : 10 бит
Бит/(Пиксели*Кадры) : 0.141
Размер потока : 4,22 Гбайт (92%)
Библиотека кодирования : x265 2.6+49-7219376de42a:[Windows][clang 7.0.0][64 bit] 10bit
Настройки программы : cpuid=1050111 / frame-threads=5 / numa-pools=4 / wpp / no-pmode / no-pme / no-psnr / no-ssim / log-level=3 / input-csp=1 / input-res=1920x816 / interlace=0 / total-frames=0 / level-idc=51 / high-tier=1 / uhd-bd=0 / ref=3 / allow-non-conformance / no-repeat-headers / annexb / no-aud / no-hrd / info / hash=0 / no-temporal-layers / open-gop / min-keyint=24 / keyint=240 / gop-lookahead=0 / bframes=4 / b-adapt=2 / b-pyramid / bframe-bias=0 / rc-lookahead=20 / lookahead-slices=5 / scenecut=40 / radl=0 / no-intra-refresh / ctu=64 / min-cu-size=8 / no-rect / no-amp / max-tu-size=32 / tu-inter-depth=1 / tu-intra-depth=1 / limit-tu=0 / rdoq-level=0 / dynamic-rd=0.00 / no-ssim-rd / signhide / no-tskip / nr-intra=0 / nr-inter=0 / no-constrained-intra / strong-intra-smoothing / max-merge=2 / limit-refs=3 / no-limit-modes / me=1 / subme=2 / merange=57 / temporal-mvp / weightp / no-weightb / no-analyze-src-pics / deblock=-3:-3 / sao / no-sao-non-deblock / rd=3 / no-early-skip / rskip / no-fast-intra / no-tskip-fast / no-cu-lossless / no-b-intra / no-splitrd-skip / rdpenalty=0 / psy-rd=2.00 / psy-rdoq=0.00 / no-rd-refine / no-lossless / cbqpoffs=0 / crqpoffs=0 / rc=crf / crf=18.0 / qcomp=0.60 / qpstep=4 / stats-write=0 / stats-read=0 / vbv-maxrate=160000 / vbv-bufsize=160000 / vbv-init=0.9 / crf-max=30.0 / crf-min=0.0 / ipratio=1.40 / pbratio=1.30 / aq-mode=1 / aq-strength=1.00 / cutree / zone-count=0 / no-strict-cbr / qg-size=32 / no-rc-grain / qpmax=69 / qpmin=0 / no-const-vbv / sar=1 / overscan=0 / videoformat=5 / range=0 / colorprim=2 / transfer=2 / colormatrix=2 / chromaloc=0 / display-window=0 / max-cll=0,0 / min-luma=0 / max-luma=1023 / log2-max-poc-lsb=8 / vui-timing-info / vui-hrd-info / slices=1 / no-opt-qp-pps / no-opt-ref-list-length-pps / no-multi-pass-opt-rps / scenecut-bias=0.05 / no-opt-cu-delta-qp / no-aq-motion / no-hdr / no-hdr-opt / no-dhdr10-opt / analysis-reuse-level=5 / scale-factor=0 / refine-intra=0 / refine-inter=0 / refine-mv=0 / no-limit-sao / ctu-info=0 / no-lowpass-dct / refine-mv-type=0 / copy-pic=1
Язык : English
Default : Да
Forced : Нет
Цветовой диапазон : Limited

Аудио
Идентификатор : 2
Формат : AC-3
Формат/Информация : Audio Coding 3
Идентификатор кодека : A_AC3
Продолжительность : 1 ч. 54 м.
Вид битрейта : Постоянный
Битрейт : 448 Кбит/сек
Каналы : 6 каналов
Расположение каналов : Front: L C R, Side: L R, LFE
Частота : 48,0 КГц
Частота кадров : 31,250 кадров/сек (1536 SPF)
Битовая глубина : 16 бит
Метод сжатия : С потерями
Размер потока : 366 Мбайт (8%)
Заголовок : Дубляж
Язык : Russian
ServiceKind/String : Complete Main
Default : Да
Forced : Нет

pb.wtf



Скачать Коматозники через торрент https://d.radikal.ru/d23/1811/96/f2200624e2b5.jpg Скачать фильм Коматозники через торрент бесплантно в хорошем качестве Описание: Достаточно сделать всего один шаг, чтобы перейти хрупкую грань между жизнью и смертью. Группа студентов-медиков выбрала для своих ... 10 10 5
Торрент: Зарегистрирован [2018-11-05 12:59] · скачан: 32 раз
Статус: √ проверено
Размер: 4.58 GB
Как cкачать? Как скачать Коматозники через торрент | UTorrent

% Раздел Тема Автор DL S | L
Ultra HD (UHD: 2K, 4K, 8K) — видео сверхвысокой чёткости [ 20.77 GB ] Коматозники / Flatliners [2017 UHD WEBRip 2160p] - [] sheker187 Скачать
1 | 0
Фильмы 2017 [DVDrip, WEB-DLRip, HDrip] (DUB, MVO) [ 1.46 GB ] Коматозники / Flatliners [2017 BDRip-AVC] - [] -Lexx- Скачать
2 | 0
Фильмы (HD 720p, 1080p) (48-60 fps) [ 3.64 GB ] Коматозники / Flatliners [2017 BDRip 720p / 60 FPS Оригинал] Tiberiumsun69 Скачать
6 | 0
Фильмы [HD 720p, 1080p] (Хороший звук DUB, MVO) [ 6.36 GB ] Коматозники / Flatliners [2017 BDRip 720p] DUB [] bober100 Скачать
1 | 0
Фильмы 2017 [DVDrip, WEB-DLRip, HDrip] (DUB, MVO) [ 711 MB ] Коматозники / Flatliners [2017 HDRip BD "EUR"] coc900 Скачать
1 | 0
Фильмы (Blu-ray, BD-Remux, HDDVD) [ 21.12 GB ] Коматозники / Flatliners [2017 BD Remux 1080p] DUB [] bober100 Скачать
1 | 0
Фильмы [HD 720p, 1080p] (Хороший звук DUB, MVO) [ 11.89 GB ] Коматозники / Flatliners [2017 BDRip 1080p] DUB [] bober100 Скачать
1 | 0

28-11-2019 20:33  

Отключить всю рекламу на сайте

05-11-2018 17:41 Коматозники Скачать торрент  

Вещь! pb.wtf



    Дорогой пользователь! Огромная просьба, поблагодарите релизера, оцените раздачу и оставьте свои комментарий, если Вы скачали Коматозники через торрент бесплатно! Внесите свою лепту в развитие PiratBit!
    Комментировать посты могут только пользователи прошедшие не сложную регистрацию
    Показать сообщения:    

    Коматозники через торрент
    Скачать бесплатно Коматозники
    Коматозники скачать торрент
    Коматозники смотреть онлайн
    Cкачать фильм Коматозники бесплатно
    Коматозники скачать торрент в хорошем качестве
    Коматозники смотреть онлайн бесплатно в хорошем качестве


    Вы не можете начинать темы
    Вы не можете отвечать на сообщения
    Вы не можете редактировать свои сообщения
    Вы не можете удалять свои сообщения
    Вы не можете голосовать в опросах
    Вы не можете прикреплять файлы к сообщениям
    Вы можете скачивать файлы