Ссылка на приватное зеркало нашего сайта всего за 1$. Внимание количество ограничено!!!

2 сезон

iTunes

1 сезон

1

iTunes

iTunes

iTunes

1 сезон

RePack

30

ИГРА 18+

pack

ВАЖНО

!!Акция!!

Alien_RageХит недели

RePack

MK11
pack

Забери бонус

RePack

jed

!!Акция!!

Alien_Rage

RePack

fifa19

RePack

Assassins Creed: Odyssey

RePack

NEED FOR SPEED™ PAYBACK

4 сезон

9 сезон

Бесстыжие 9 сезон

Все сериалы

все сериалы на PB.wtf

RePack

FAR CRY 5
  

Годунов Сезон: 1 / Серии: 1-8 из 8 (Алексей Андрианов, Тимур Алпатов) [2018 , драма, история, HDTV 1080p] Не требуется [Русский] R.G.Generalfilm pb.wtf

Годунов Сезон: 1 через торрент pb.wtf

Размер: 19.65 GB | Добавлен: 1 год 11 мес. назад | Торрент скачан:214 раз
Скачать  

05-11-2018 23:05 Годунов Сезон: 1 Скачать торрент  


Годунов
««История любви. История России»»


Год выпуска: 2018
Страна: Россия
Жанр: драма, история
Продолжительность: 00:50:27
Перевод: Не требуется [Русский]
Режиссер: Алексей Андрианов, Тимур Алпатов
В ролях:

Сергей Безруков (Борис Годунов), Сергей Маковецкий (Иван Грозный), Анна Михалкова (Ирина Годунова), Светлана Ходченкова (Мария Годунова), Виктор Сухоруков (Малюта Скуратов), Андрей Мерзликин (Василий Шуйский), Александр Устюгов (Фёдор Романов), Ирина Пегова (Мария Нагая), Владимир Стеклов, Антон Кузнецов (Богдан Бельский), Александр Семчев, Федор Лавров
Описание:
Фильм о семье Годуновых, который охватывает период со времени правления Ивана Грозного до восшествия на престол Михаила Романова.

Качество: HDTV 1080p
Формат: MKV
Видео кодек: AVC
Аудио кодек: AC3
Видео: AVC, 1920x1080 (16:9), 7050 kbps, 25 fps, 0,136 bpp
Аудио: AC3 / 2.0 / 48 kHz / 192 kbps /
General
Unique ID : 230663566058227180682774630953920982295 (0xAD882FD85AEE1F608C0B6C2DE4636D17)
Complete name : E:\Запись с тв\Godunov 2018.HDTV 1080p.RG GeneralFilm\Godunov.s01.e01.2018.HDTV 1080p.by.White Smoke.R.G.Generalfilm.mkv
Format : Matroska
Format version : Version 4 / Version 2
File size : 2.53 GiB
Duration : 50 min
Overall bit rate mode : Constant
Overall bit rate : 7 164 kb/s
Movie name : Godunov.s01.e01.2018.HDTV 1080p.by.White Smoke.R.G.Generalfilm.mkv
Encoded date : UTC 2018-11-05 22:36:49
Writing application : mkvmerge v6.8.0 ('Theme for Great Cities') 64bit built on Mar 2 2014 21:34:26
Writing library : libebml v1.3.0 + libmatroska v1.4.1
Cover : Yes
Attachments : cover.png

Video
ID : 1
Format : AVC
Format/Info : Advanced Video Codec
Format profile : High@L4.1
Format settings, CABAC : Yes
Format settings, ReFrames : 3 frames
Format settings, GOP : M=3, N=33
Codec ID : V_MPEG4/ISO/AVC
Duration : 50 min
Bit rate mode : Constant
Bit rate : 7 051 kb/s
Width : 1 920 pixels
Height : 1 080 pixels
Display aspect ratio : 16:9
Frame rate mode : Constant
Frame rate : 25.000 FPS
Standard : PAL
Color space : YUV
Chroma subsampling : 4:2:0
Bit depth : 8 bits
Scan type : Progressive
Bits/(Pixel*Frame) : 0.136
Stream size : 2.41 GiB (95%)
Default : Yes
Forced : No
Color range : Limited
Color primaries : BT.709
Transfer characteristics : BT.709
Matrix coefficients : BT.709

Audio
ID : 2
Format : AC-3
Format/Info : Audio Coding 3
Mode extension : CM (complete main)
Format settings, Endianness : Big
Codec ID : A_AC3
Duration : 50 min
Bit rate mode : Constant
Bit rate : 192 kb/s
Channel(s) : 2 channels
Channel positions : Front: L R
Sampling rate : 48.0 kHz
Frame rate : 31.250 FPS (1536 spf)
Compression mode : Lossy
Stream size : 69.3 MiB (3%)
Default : Yes
Forced : No
Внимание! Раздача ведётся путём добавления новых серий; при каждом добавлении создаётся новый торрент.
Чтобы начать докачку новой серии, пользователям необходимо сделать следующее:
1. Остановить скачивание;
2. Удалить старый торрент у себя из клиента (старые серии удалять не надо);
3. Скачать новый торрент и запустить его у себя в клиенте вместо старого, при этом указать клиенту путь в старую папку куда и должно происходить скачивание новых серий. Ваш клиент при этом должен произвести хеширование (проверку) старой папки и будет докачивать только те серии, которых у вас ещё нет. Старые серии при этом не удаляются, а продолжают раздаваться! Eсли вы уже удалили старые серии, то предотвратить повторную закачку старых серий можно, отжав галочку в соответствующих местах при запуске нового торрента.
pb.wtf



Скачать Годунов Сезон: 1 через торрент http://interhit.org/img/2018-05/27/95e0rpzgd7ieqwngygkarjw3v.gif Скачать фильм Годунов Сезон: 1 через торрент бесплантно в хорошем качестве Описание: Фильм о семье Годуновых, который охватывает период со времени правления Ивана Грозного до восшествия на престол Михаила ... 10 10 8
× Info от релизера! Добавлена 7-8 серия
Info! Золотая раздача, скачанное не засчитывается.
Торрент: Зарегистрирован [2018-11-09 04:43] · скачан: 214 раз
Статус: √ проверено
Размер: 19.65 GB
Как cкачать? Как скачать Годунов Сезон: 1 через торрент | qTorrent



Последний раз редактировалось: White Smoke (2018-11-09 04:43), всего редактировалось 3 раз(а)

28-11-2019 20:33  

Отключить всю рекламу на сайте

06-11-2018 15:49 Годунов Сезон: 1 Скачать торрент  

побольше бы таких фильмов надо !!!!!pb.wtf



06-11-2018 17:35 Годунов Сезон: 1 Скачать торрент  

ну вот спасибо в качестве посмотреть самое то!pb.wtf



08-11-2018 20:41 Годунов Сезон: 1 Скачать торрент  

вроде все серии уже есть! когда тут будут?pb.wtf



18-11-2018 15:01 Годунов Сезон: 1 Скачать торрент  

Будут серии после 8-ой?pb.wtf



    Дорогой пользователь! Огромная просьба, поблагодарите релизера, оцените раздачу и оставьте свои комментарий, если Вы скачали Годунов Сезон: 1 через торрент бесплатно! Внесите свою лепту в развитие PiratBit!
    Комментировать посты могут только пользователи прошедшие не сложную регистрацию
    Показать сообщения:    

    Годунов Сезон: 1 через торрент
    Скачать бесплатно Годунов Сезон: 1
    Годунов Сезон: 1 скачать торрент
    Годунов Сезон: 1 смотреть онлайн
    Cкачать фильм Годунов Сезон: 1 бесплатно
    Годунов Сезон: 1 скачать торрент в хорошем качестве
    Годунов Сезон: 1 смотреть онлайн бесплатно в хорошем качестве


    Вы не можете начинать темы
    Вы не можете отвечать на сообщения
    Вы не можете редактировать свои сообщения
    Вы не можете удалять свои сообщения
    Вы не можете голосовать в опросах
    Вы не можете прикреплять файлы к сообщениям
    Вы можете скачивать файлы