новый адрес пиратбит piratbit
Мега распродажа FORZA HORIZON 4 ULTIMATE+ВСЕ DLC+ОНЛАЙН всего за 499р. 349 руб. (супер цена). Внимание количество ограничено!!!

iTunes

1+1

iTunes

мы

iTunes

1

iTunes

Чернобыль

iTunes

Ральф против интернета

Лицензия

ПШазам

Лицензия

Игра престолов

Лицензия

30
pack

ВАЖНО

!!Акция!!

Alien_RageХит недели

RePack

Resident Evil 21

ИГРА 18+

pack

RePack

Metro:Exodus

!!Акция!!

Alien_Rage

RePack

fifa19

RePack

Assassins Creed: Odyssey

RePack

NEED FOR SPEED™ PAYBACK

3 сезон

9 сезон

Бесстыжие 9 сезон

Все сериалы

все сериалы на PB.wtf

RePack

FAR CRY 5
Ребята, катастрофически не хватает 1900р. для оплаты серверов за Октябрь (всвязи с блокировками трафик упал в 3 раза), 1-2р., выручайте.
  

Подвиды 2: Кровавый камень / Subspecies 2: Bloodstone (Тед Николау) [1993 г., ужасы, фэнтези, BDRip 720p] AVO [Гаврилов] pb.wtf

Подвиды 2: Кровавый камень через торрент pb.wtf

Размер: 4.22 GB | Добавлен: 1 год назад | Торрент скачан:2 раза
Скачать  

06-11-2018 04:43 Подвиды 2: Кровавый камень Скачать торрент  

Подвиды 2: Кровавый камень / Subspecies 2: Bloodstone
Год выпуска: 1993
Страна: США, Румыния
Жанр: Ужасы, фэнтези
Продолжительность: 01:26:40
Перевод: Авторский (одноголосый)

Режиссер: Тед Николау

rating

В ролях: Эндерс Хоув, Дэнис Мэри Дафф, Кевин Блэр, Пэмела Гордон, Майкл Дениш, Кевин Спиртас, Мелани Шетнер, Йон Хайдук, Тудорел Филимон, Виорел Команич, Виорел Сергович

Описание: После финального побоища в замке уцелевшая американка Мишель стала вампиром, во многом благодаря стараниям Раду и Стефана. Безголовый Раду возродился вновь при содействии своих верных подручных-коротышек, убил своего брата Стефана и занёс было уже и над Мишель убийственный меч, но солнце помешало осуществить ему этот замысел. Он ретировался, но ровно настолько, чтобы затем вновь нагнать убегающую от него девушку. Та, терзаемая укусами и постепенным превращением в полноценного вампира, вызывает на подмогу сестрёнку Ребекку из самой Америки. А Раду, пока преследовал девушку по пятам, признал для себя, что влюблён в неё. Против ненавистного вампира и его страшненькой матушки выступят Мишель, Ребекка и хранитель бухарестского музея истории. А залогом в этом соперничестве станет кровавый камень.
Качество: BDRip 720p
Формат: MKV
Видео кодек: MPEG-4 AVC
Аудио кодек: AC3
Видео: MPEG-4 AVC, 6100 Кбит/с, 1280x720
Аудио#1: Русский, AC3, 2 ch, 256 Кбит/с - Гаврилов (Новый перевод)
Аудио#2: Русский, AC3, 2 ch, 192 Кбит/с - Гаврилов (Перевод с VHS)
Аудио#3: Английский, AC3, 2 ch, 224 Кбит/с
Аудио#4: Английский, AC3, 2 ch, 192 Кбит/с - Commentary
Видео
Идентификатор : 1
Формат : AVC
Формат/Информация : Advanced Video Codec
Профиль формата : High@L4.1
Параметр CABAC формата : Да
Параметр ReFrames формата : 9 кадров
Идентификатор кодека : V_MPEG4/ISO/AVC
Продолжительность : 1 ч. 26 м.
Битрейт : 6100 Кбит/сек
Ширина : 1280 пикселей
Высота : 720 пикселей
Соотношение сторон : 16:9
Режим частоты кадров : Постоянный
Частота кадров : 23,976 (24000/1001) кадра/сек
Цветовое пространство : YUV
Субдискретизация насыщенности : 4:2:0
Битовая глубина : 8 бит
Тип развёртки : Прогрессивная
Бит/(Пиксели*Кадры) : 0.276
Размер потока : 3,69 Гбайт (88%)
Заголовок : Subspecies.II.1993.720p.BDRip-MM
Библиотека кодирования : x264 core 146 r2538 121396c
Настройки программы : cabac=1 / ref=9 / deblock=1:-3:-3 / analyse=0x3:0x133 / me=umh / subme=11 / psy=1 / psy_rd=1.00:0.00 / mixed_ref=1 / me_range=48 / chroma_me=1 / trellis=2 / 8x8dct=1 / cqm=0 / deadzone=21,11 / fast_pskip=0 / chroma_qp_offset=-2 / threads=12 / lookahead_threads=3 / sliced_threads=0 / nr=0 / decimate=0 / interlaced=0 / bluray_compat=0 / constrained_intra=0 / bframes=11 / b_pyramid=2 / b_adapt=2 / b_bias=0 / direct=3 / weightb=1 / open_gop=1 / weightp=2 / keyint=250 / keyint_min=23 / scenecut=40 / intra_refresh=0 / rc_lookahead=60 / rc=2pass / mbtree=1 / bitrate=6100 / ratetol=1.0 / qcomp=0.60 / qpmin=0 / qpmax=69 / qpstep=4 / cplxblur=20.0 / qblur=0.5 / vbv_maxrate=50000 / vbv_bufsize=62500 / nal_hrd=none / filler=0 / ip_ratio=1.40 / aq=1:1.10
Язык : English
Default : Да
Forced : Нет

Аудио #1
Идентификатор : 2
Формат : AC-3
Формат/Информация : Audio Coding 3
Расширение режима : CM (complete main)
Параметр Endianness формата : Big
Идентификатор кодека : A_AC3
Продолжительность : 1 ч. 26 м.
Вид битрейта : Постоянный
Битрейт : 256 Кбит/сек
Каналы : 2 канала
Расположение каналов : Front: L R
Частота : 48,0 КГц
Частота кадров : 31,250 кадров/сек (1536 spf)
Битовая глубина : 16 бит
Метод сжатия : С потерями
Размер потока : 159 Мбайт (4%)
Заголовок : AVO Гаврилов (Новый перевод)
Язык : Russian
Default : Да
Forced : Нет

Аудио #2
Идентификатор : 3
Формат : AC-3
Формат/Информация : Audio Coding 3
Расширение режима : CM (complete main)
Параметр Endianness формата : Big
Идентификатор кодека : A_AC3
Продолжительность : 1 ч. 26 м.
Вид битрейта : Постоянный
Битрейт : 192 Кбит/сек
Каналы : 2 канала
Расположение каналов : Front: L R
Частота : 48,0 КГц
Частота кадров : 31,250 кадров/сек (1536 spf)
Битовая глубина : 16 бит
Метод сжатия : С потерями
Размер потока : 119 Мбайт (3%)
Заголовок : AVO Гаврилов (VHS)
Язык : Russian
Default : Нет
Forced : Нет

Аудио #3
Идентификатор : 4
Формат : AC-3
Формат/Информация : Audio Coding 3
Расширение режима : CM (complete main)
Параметр Endianness формата : Big
Идентификатор кодека : A_AC3
Продолжительность : 1 ч. 26 м.
Вид битрейта : Постоянный
Битрейт : 224 Кбит/сек
Каналы : 6 каналов
Расположение каналов : Front: L C R, Side: L R, LFE
Частота : 48,0 КГц
Частота кадров : 31,250 кадров/сек (1536 spf)
Битовая глубина : 16 бит
Метод сжатия : С потерями
Размер потока : 139 Мбайт (3%)
Заголовок : Original
Язык : English
Default : Нет
Forced : Нет

Аудио #4
Идентификатор : 5
Формат : AC-3
Формат/Информация : Audio Coding 3
Расширение режима : CM (complete main)
Параметр Endianness формата : Big
Идентификатор кодека : A_AC3
Продолжительность : 1 ч. 26 м.
Вид битрейта : Постоянный
Битрейт : 192 Кбит/сек
Каналы : 2 канала
Расположение каналов : Front: L R
Частота : 48,0 КГц
Частота кадров : 31,250 кадров/сек (1536 spf)
Битовая глубина : 16 бит
Метод сжатия : С потерями
Размер потока : 119 Мбайт (3%)
Заголовок : Commentary
Язык : English
Default : Нет
Forced : Нет

Меню
00:00:00.000 : en:00:00:00.000
00:07:58.561 : en:00:07:58.561
00:16:46.422 : en:00:16:46.422
00:22:18.462 : en:00:22:18.462
00:28:33.378 : en:00:28:33.378
00:33:55.450 : en:00:33:55.450
00:41:06.214 : en:00:41:06.214
00:49:01.438 : en:00:49:01.438
00:58:48.024 : en:00:58:48.024
01:07:00.391 : en:01:07:00.391
01:16:30.294 : en:01:16:30.294
01:23:45.354 : en:01:23:45.354

скриншот   скриншот   скриншот   скриншот   скриншот  

pb.wtf



Скачать Подвиды 2: Кровавый камень через торрент http://pic1.kartinco.top/images/11/av5gg.jpg Скачать фильм Подвиды 2: Кровавый камень через торрент бесплантно в хорошем качестве Описание: После финального побоища в замке уцелевшая американка Мишель стала вампиром, во многом благодаря стараниям Раду и Стефана. ... 10 10 1
Торрент: Зарегистрирован [2018-11-06 04:43] · скачан: 2 раз
Статус: √ проверено
Размер: 4.22 GB
Как cкачать? Как скачать Подвиды 2: Кровавый камень через торрент | qTorrent


>> Регистрируемся здесь <<






Отзывы и комментарии о схеме читаем и пишем здесь: ---> Отзывы и комментарии о схеме

Новые благодарочки в телеграм довольных пользователей:
скриншот   скриншот   скриншот   скриншот   скриншот
    Дорогой пользователь! Огромная просьба, поблагодарите релизера, оцените раздачу и оставьте свои комментарий, если Вы скачали Подвиды 2: Кровавый камень через торрент бесплатно! Внесите свою лепту в развитие PiratBit!
    Комментировать посты могут только пользователи прошедшие не сложную регистрацию
    Показать сообщения:    

    Подвиды 2: Кровавый камень через торрент
    Скачать бесплатно Подвиды 2: Кровавый камень
    Подвиды 2: Кровавый камень скачать торрент
    Подвиды 2: Кровавый камень смотреть онлайн
    Cкачать фильм Подвиды 2: Кровавый камень бесплатно
    Подвиды 2: Кровавый камень скачать торрент в хорошем качестве
    Подвиды 2: Кровавый камень смотреть онлайн бесплатно в хорошем качестве


    Вы не можете начинать темы
    Вы не можете отвечать на сообщения
    Вы не можете редактировать свои сообщения
    Вы не можете удалять свои сообщения
    Вы не можете голосовать в опросах
    Вы не можете прикреплять файлы к сообщениям
    Вы можете скачивать файлы