Доктор Стрэндж

Лицензия

Добыча

Дубляж

Уэнсдэй

1 сезон

Тор

Дубляж

В эфире

Дубляж

Там, где раки поют

MVO

Властелин колец

1 сезон

Deluxe

pack

Рекомендуем

30

Пиратка

ВАЖНО

ВАЖНО

Ghostwire

Пиратка

jed

RePack

nioh2

RePack

RDR2

RePack

NEED FOR SPEED™ PAYBACK

RePack

скачать торрент

Кинопоиск HD

Острые козырьки 6 сезон

6 сезон

FAR CRY 6

RePack

скачать торрент

Лицензия

скачать торрент

MVO

1

1 сезон

скачать торрент

1 сезон

скачать торрент

Лицензия

  

Мег: Монстр глубины / The Meg (Джон Тёртлтауб) [2018, ужасы, фантастика, боевик, триллер, BD Remux 1080p] Дубляж (rus, ukr) [iTunes]

Мег: Монстр глубины через торрент pb.wtf

Размер: 18.12 GB | Добавлен: 4 года 1 мес. назад | Торрент скачан:195 раз
Смотреть онлайн | Скачать   

06-11-2018 06:59 Мег: Монстр глубины Скачать торрент  

Мег: Монстр глубины / The Meg
Год выпуска: 2018
Страна: Китай, США
Жанр: ужасы, фантастика, боевик, триллер
Продолжительность: 01:53:11
Перевод: Дублированный | iTunes
Субтитры: Русские (Forced, full), украинские (Forced), английские

Режиссер: Джон Тёртлтауб

rating

В ролях:

Джейсон Стэйтем (Jonas Taylor), Ли Бинбин (Suyin), Рэйн Уилсон (Morris), Клифф Кёртис (Mac), Уинстон Чао (Zhang), Шуя Софиа Цай (Meiying), Руби Роуз (Jaxx), Пейдж Кеннеди (DJ), Роберт Тейлор (Heller), Оулавюр Дарри Оулафссон (The Wall), Джессика МакНэми (Lori), Маси Ока (Toshi)
Описание:

Глубоководный батискаф, осуществляющий наблюдение в рамках международной программы по изучению подводной жизни, был атакован огромным существом, которое все считали давно вымершим. Неисправный аппарат теперь лежит на дне глубочайшей впадины Тихого океана... с оказавшимся в ловушке экипажем. Их время на исходе. Китайская океанограф-новатор Суинь вопреки желанию своей дочери зовет спасателя-подводника Джонаса Тейлора, чтобы тот помог спасти команду и океан от невиданной угрозы - доисторической 23-метровой акулы, мегалодона. Никто и подумать не мог, что много лет назад Тейлор уже сталкивался с этим чудовищным созданием.

Качество: BD Remux 1080p
Формат: MKV

Видео: MPEG-4 AVC, 1920x1080, 18.8 Mbit/s, 23.976 fps
Аудио#1: 48 kHz, AC3, 5.1, 384 Kbps | iTunes | RUS |
Аудио#2: 48 kHz, AC3, 2.0, 160 | iTunes | UKR |
Аудио#3: 48 kHz, TrueHD, 7.1, 3051 Kbps | Оригинал | ENG |
Аудио#4: 48 kHz, AC3, 5.1, 448 Kbps | Оригинал | ENG |
скриншот  скриншот  скриншот  скриншот  скриншот  

General
Unique ID : 44954136108806488260619917344644575410 (0x21D1DA08114ABB1D62017F818634B0B2)
Complete name : D:Video111The.Meg.2018.BDREMUX.1080p.selezen.mkv
Format : Matroska
Format version : Version 4
File size : 18.1 GiB
Duration : 1 h 53 min
Overall bit rate mode : Variable
Overall bit rate : 22.9 Mb/s
Movie name : The Meg 2018 from селезень
Encoded date : UTC 2018-11-06 05:49:25
Writing application : mkvmerge v28.0.0 ('Voice In My Head') 64-bit
Writing library : libebml v1.3.6 + libmatroska v1.4.9

Video
ID : 1
Format : AVC
Format/Info : Advanced Video Codec
Format profile : [email protected]
Format settings : CABAC / 4 Ref Frames
Format settings, CABAC : Yes
Format settings, ReFrames : 4 frames
Codec ID : V_MPEG4/ISO/AVC
Duration : 1 h 53 min
Bit rate mode : Variable
Bit rate : 18.8 Mb/s
Maximum bit rate : 21.0 Mb/s
Width : 1 920 pixels
Height : 1 080 pixels
Display aspect ratio : 16:9
Frame rate mode : Constant
Frame rate : 23.976 (24000/1001) FPS
Color space : YUV
Chroma subsampling : 4:2:0
Bit depth : 8 bits
Scan type : Progressive
Bits/(Pixel*Frame) : 0.378
Stream size : 14.9 GiB (82%)
Language : English
Default : Yes
Forced : No

Audio #1
ID : 2
Format : AC-3
Format/Info : Audio Coding 3
Commercial name : Dolby Digital
Codec ID : A_AC3
Duration : 1 h 53 min
Bit rate mode : Constant
Bit rate : 384 kb/s
Channel(s) : 6 channels
Channel layout : L R C LFE Ls Rs
Sampling rate : 48.0 kHz
Frame rate : 31.250 FPS (1536 SPF)
Bit depth : 16 bits
Compression mode : Lossy
Stream size : 311 MiB (2%)
Title : iTunes
Language : Russian
Service kind : Complete Main
Default : Yes
Forced : Yes

Audio #2
ID : 3
Format : AC-3
Format/Info : Audio Coding 3
Commercial name : Dolby Digital
Codec ID : A_AC3
Duration : 1 h 53 min
Bit rate mode : Constant
Bit rate : 160 kb/s
Channel(s) : 2 channels
Channel layout : L R
Sampling rate : 48.0 kHz
Frame rate : 31.250 FPS (1536 SPF)
Bit depth : 16 bits
Compression mode : Lossy
Stream size : 130 MiB (1%)
Title : iTunes
Language : Ukrainian
Service kind : Complete Main
Default : No
Forced : No

Audio #3
ID : 4
Format : MLP FBA 16-ch
Format/Info : Meridian Lossless Packing FBA with 16-channel presentation
Commercial name : Dolby TrueHD with Dolby Atmos
Codec ID : A_TRUEHD
Duration : 1 h 53 min
Bit rate mode : Variable
Bit rate : 3 051 kb/s
Maximum bit rate : 5 067 kb/s
Channel(s) : 8 channels
Channel layout : L R C LFE Ls Rs Lb Rb
Sampling rate : 48.0 kHz
Frame rate : 1 200.000 FPS (40 SPF)
Compression mode : Lossless
Stream size : 2.41 GiB (13%)
Title : Original
Language : English
Default : No
Forced : No
Number of dynamic objects : 11
Bed channel count : 1 channel
Bed channel configuration : LFE

Audio #4
ID : 5
Format : AC-3
Format/Info : Audio Coding 3
Commercial name : Dolby Digital
Codec ID : A_AC3
Duration : 1 h 53 min
Bit rate mode : Constant
Bit rate : 448 kb/s
Channel(s) : 6 channels
Channel layout : L R C LFE Ls Rs
Sampling rate : 48.0 kHz
Frame rate : 31.250 FPS (1536 SPF)
Bit depth : 16 bits
Compression mode : Lossy
Stream size : 363 MiB (2%)
Language : English
Service kind : Complete Main
Default : No
Forced : No

Text #1
ID : 6
Format : UTF-8
Codec ID : S_TEXT/UTF8
Codec ID/Info : UTF-8 Plain Text
Duration : 1 h 41 min
Bit rate : 5 b/s
Count of elements : 97
Stream size : 3.81 KiB (0%)
Title : Forced
Language : Russian
Default : Yes
Forced : Yes

Text #2
ID : 7
Format : UTF-8
Codec ID : S_TEXT/UTF8
Codec ID/Info : UTF-8 Plain Text
Duration : 1 h 52 min
Bit rate : 78 b/s
Count of elements : 1203
Stream size : 64.6 KiB (0%)
Title : Full
Language : Russian
Default : No
Forced : No

Text #3
ID : 8
Format : UTF-8
Codec ID : S_TEXT/UTF8
Codec ID/Info : UTF-8 Plain Text
Duration : 1 h 52 min
Bit rate : 5 b/s
Count of elements : 111
Stream size : 4.20 KiB (0%)
Title : Forced
Language : Ukrainian
Default : No
Forced : No

Text #4
ID : 9
Format : UTF-8
Codec ID : S_TEXT/UTF8
Codec ID/Info : UTF-8 Plain Text
Duration : 1 h 41 min
Bit rate : 51 b/s
Count of elements : 1409
Stream size : 38.1 KiB (0%)
Title : SDH
Language : English
Default : No
Forced : No

Menu
00:00:00.000 : en:Chapter 1
00:08:48.569 : en:Chapter 2
00:18:13.884 : en:Chapter 3
00:27:09.878 : en:Chapter 4
00:39:30.117 : en:Chapter 5
00:49:10.906 : en:Chapter 6
00:58:00.768 : en:Chapter 7
01:08:22.640 : en:Chapter 8
01:19:45.405 : en:Chapter 9
01:30:03.439 : en:Chapter 10
01:42:40.362 : en:Chapter 11




Скачать Мег: Монстр глубины через торрент http://d.radikal.ru/d14/1810/f1/355bbada0440.png Скачать, смотреть онлайн Мег: Монстр глубины бесплантно в хорошем качестве Описание:Глубоководный батискаф, осуществляющий наблюдение в рамках международной программы по изучению подводной жизни, был атакован ... 10 10 5
Торрент: Зарегистрирован [2018-11-06 06:59] · скачан: 195 раз
Статус: √ проверено
Размер: 18.12 GB
Как cкачать? Как скачать Мег: Монстр глубины через торрент | UTorrent

% Раздел Тема Автор DL S | L
Фильмы [HD 720p, 1080p] (Хороший звук DUB, MVO) [ 4.61 GB ] Мег: Монстр глубины / The Meg | iTunes | 1080p, (10bit bober100 Скачать
1 | 0
Фильмы 2018 [DVDrip, WEB-DLRip, HDrip] (DUB, MVO) [ 4.18 GB ] Мег: Монстр глубины / The Meg | MVO | BDRip-AVC, Dub, MVO, AVO morfyi Скачать
3 | 0
Ultra HD (UHD: 2K, 4K, 8K) [ 38.28 GB ] Мег: Монстр глубины / The Meg | Лицензия | 2160p bober100 Скачать
1 | 0
Фильмы (HD 720p, 1080p) (48-60 fps) [ 5.05 GB ] Мег: Монстр глубины / The Meg | Лицензия | 720p 60 fps от еnvy / NNNB еnvy Скачать
5 | 0
Фильмы 2018 [DVDrip, WEB-DLRip, HDrip] (DUB, MVO) [ 1.45 GB ] Мег: Монстр глубины / The Meg | Лицензия | BDRip-AVC Enigma2010 Скачать
2 | 0
Фильмы 2018 [DVDrip, WEB-DLRip, HDrip] (DUB, MVO) [ 2.19 GB ] Мег: Монстр глубины / The Meg | Лицензия | BDRip Twi7ter Скачать
1 | 0
3D Фильмы [ 11.28 GB ] Мег: Монстр глубины 3Д / The Meg 3D | Лицензия | 1080p bober100 Скачать
1 | 0

28-11-2019 20:33  


Отключить вcю реклaмy на сайте, в т.ч. и в плеере онлайн просмотра!

    Дорогой пользователь! Огромная просьба, поблагодарите релизера, оцените раздачу и оставьте свои комментарий, если Вы скачали Мег: Монстр глубины через торрент бесплатно!!
    Комментировать посты могут только пользователи прошедшие не сложную регистрацию
    Показать сообщения:    


    Мег: Монстр глубины через торрент
    Скачать бесплатно Мег: Монстр глубины
    Мег: Монстр глубины скачать торрент
    Мег: Монстр глубины смотреть онлайн
    Cкачать фильм Мег: Монстр глубины бесплатно
    Мег: Монстр глубины скачать торрент в хорошем качестве
    Мег: Монстр глубины смотреть онлайн бесплатно в хорошем качестве
    Вы не можете начинать темы
    Вы не можете отвечать на сообщения
    Вы не можете редактировать свои сообщения
    Вы не можете удалять свои сообщения
    Вы не можете голосовать в опросах
    Вы не можете прикреплять файлы к сообщениям
    Вы можете скачивать файлы
    Мег: Монстр глубины / The Meg [2018, ужасы, фантастика, боевик, триллер, BD Remux 1080p] Дубляж [iTunes] смотреть онлайн, скачать торрент picoco.icu