Всегда рабочее зеркало без VPN и Proxy просто перед .vidak.icu напиши любое слово или цифру, Пример http://eglw.vidak.icu

MVO

2 сезон

1 сезон

1

1 сезон

iTunes

2 сезон

13

1 сезон

Deluxe

pack

Рекомендуем

Пиратка

30

ВАЖНО

RePack

MK11

RePack

jed

RePack

fifa19

RePack

RDR2

RePack

NEED FOR SPEED™ PAYBACK

Кинопоиск HD

6 сезон

 Острые козырьки 6 сезон

Все сериалы

все сериалы на PB.wtf

RePack

FAR CRY 5

Anonymous, нам критически не хватает 5601 руб. на оплату серверов и переферии за Апрель, помоги нам пожалуйста, вся надежда только на тебя. В благодарность мы отключим тебе всю рекламу на сайте!

×
  
Magnet ссылка

Зимний цветок / Fuyu no hana (Ясуо Фурухата) [1978, драма, криминал, BDRip 1080p by msltel] AVO pb.wtf

Зимний цветок через торрент pb.wtf

Размер: 13.24 GB | Добавлен: 3 года 6 мес. назад | Торрент скачан:0 раз
Смотреть онлайн Зимний цветок | Скачать    Ребята, помогите собрать деньги на оплату серверов!!!

06-11-2018 08:17 Зимний цветок Скачать торрент  

Название: Зимний цветок
Оригинальное название: Fuyu no hana
Год выпуска: 1978
Страна: Япония
Жанр: драма, криминал
Продолжительность: 02:00:46
Перевод: авторский

Режиссер: Ясуо Фурухата
В ролях: Кэн Такакура, Кимико Икегами, Кинъя Китаодзи, Мицуко Байсё, Сусуму Фудзита, Нэндзи Кобаяси, Йоичи Миура, Исао Нацуяги, Масуми Окада, Сёити Одзава, Куниэ Танака, Минори Тэрада, Хидэдзи Отаки

О фильме: Кано — якудза. Он должен убить Мацуоку, который предал их босса. Кано знал, что у Мацуоки была трёхлетняя дочь, поэтому прежде, чем сдаться полиции, он попросил человека, которому доверял, чтоб тот заботился о ней. В тюрьме Кано продолжал посылать письма девочке, маскируясь под дядю из Бразилии. Через 15 лет Кано выходит из тюрьмы. Бывший якузда настроен жить, не нарушая закон, однако жизнь вносит свои коррективы...



Качество: BDRip 1080p
Формат: MKV
Видео: MPEG-4 AVC, 15.3 Mбит/с, 1920x1038
Аудио 1: русский, AC3, 192 kbps, 2 ch, 48 kHz [авторский, Андрей Дольский]
Аудио 2: японский, AC3, 192 kbps, 2 ch, 48 kHz [оригинал]
Субтитры: английские
Общее
Уникальный идентификатор : 255045055746758925782542679110009612883 (0xBFDFE418C6C923B0870700A1BCBDEA53)
Полное имя : D:\Video\Зимний цветок.1978.BDRip 1080p by msltel.mkv
Формат : Matroska
Версия формата : Version 4
Размер файла : 13,2 Гбайт
Продолжительность : 2 ч. 0 м.
Общий поток : 15,7 Мбит/сек
Название фильма : Rip by msltel
Дата кодирования : UTC 2018-11-06 06:34:06
Программа кодирования : mkvmerge v8.2.0 ('World of Adventure') 64bit
Библиотека кодирования : libebml v1.3.1 + libmatroska v1.4.2

Видео
Идентификатор : 1
Формат : AVC
Формат/Информация : Advanced Video Codec
Профиль формата : High@L4.1
Настройки формата : CABAC / 4 Ref Frames
Параметр CABAC формата : Да
Параметр RefFrames формата : 4 кадра
Идентификатор кодека : V_MPEG4/ISO/AVC
Продолжительность : 2 ч. 0 м.
Битрейт : 15,3 Мбит/сек
Ширина : 1920 пикселей
Высота : 1038 пикселей
Соотношение сторон : 1,85:1
Режим частоты кадров : Постоянный
Частота кадров : 23,976 (24000/1001) кадра/сек
Цветовое пространство : YUV
Субдискретизация насыщенности : 4:2:0
Битовая глубина : 8 бит
Тип развёртки : Прогрессивная
Бит/(Пиксели*Кадры) : 0.320
Размер потока : 12,9 Гбайт (98%)
Библиотека кодирования : x264 core 155 r2901 7d0ff22
Настройки программы : cabac=1 / ref=4 / deblock=1:-3:-2 / analyse=0x3:0x113 / me=umh / subme=11 / psy=1 / psy_rd=1.00:0.15 / mixed_ref=1 / me_range=32 / chroma_me=1 / trellis=2 / 8x8dct=1 / cqm=0 / deadzone=21,11 / fast_pskip=0 / chroma_qp_offset=-3 / threads=6 / lookahead_threads=1 / sliced_threads=0 / nr=0 / decimate=1 / interlaced=0 / bluray_compat=0 / constrained_intra=0 / bframes=11 / b_pyramid=2 / b_adapt=2 / b_bias=0 / direct=1 / weightb=1 / open_gop=0 / weightp=2 / keyint=230 / keyint_min=23 / scenecut=40 / intra_refresh=0 / rc_lookahead=40 / rc=crf / mbtree=1 / crf=19.5 / qcomp=0.60 / qpmin=0 / qpmax=69 / qpstep=4 / vbv_maxrate=62500 / vbv_bufsize=78125 / crf_max=0.0 / nal_hrd=none / filler=0 / ip_ratio=1.40 / aq=1:1.00
Язык : Japanese
Default : Да
Forced : Нет

Аудио #1
Идентификатор : 2
Формат : AC-3
Формат/Информация : Audio Coding 3
Коммерческое название : Dolby Digital
Идентификатор кодека : A_AC3
Продолжительность : 2 ч. 0 м.
Вид битрейта : Постоянный
Битрейт : 192 Кбит/сек
Каналы : 2 канала
Channel layout : L R
Частота : 48,0 КГц
Частота кадров : 31,250 кадров/сек (1536 SPF)
Битовая глубина : 16 бит
Метод сжатия : С потерями
Размер потока : 166 Мбайт (1%)
Заголовок : Андрей Дольский
Язык : Russian
ServiceKind/String : Complete Main
Default : Да
Forced : Нет

Аудио #2
Идентификатор : 3
Формат : AC-3
Формат/Информация : Audio Coding 3
Коммерческое название : Dolby Digital
Идентификатор кодека : A_AC3
Продолжительность : 2 ч. 0 м.
Вид битрейта : Постоянный
Битрейт : 192 Кбит/сек
Каналы : 2 канала
Channel layout : L R
Частота : 48,0 КГц
Частота кадров : 31,250 кадров/сек (1536 SPF)
Битовая глубина : 16 бит
Метод сжатия : С потерями
Размер потока : 166 Мбайт (1%)
Заголовок : original
Язык : Japanese
ServiceKind/String : Complete Main
Default : Нет
Forced : Нет

Текст
Идентификатор : 4
Формат : UTF-8
Идентификатор кодека : S_TEXT/UTF8
Идентификатор кодека/Информация : UTF-8 Plain Text
Продолжительность : 2 ч. 0 м.
Битрейт : 27 бит/сек
ElementCount : 893
Размер потока : 24,4 Кбайт (0%)
Заголовок : английские
Язык : English
Default : Нет
Forced : Нет
pb.wtf



Скачать Зимний цветок через торрент https://c.radikal.ru/c12/1811/cf/cfc4eb2e4c00.jpg Скачать, смотреть онлайн Зимний цветок бесплантно в хорошем качестве О фильме: Кано — якудза. Он должен убить Мацуоку, который предал их босса. Кано знал, что у Мацуоки была трёхлетняя дочь, поэтому прежде, ... 5 10 1
Info! Золотая раздача, скачанное не засчитывается.
Торрент: Зарегистрирован [2018-11-06 08:17] · скачан: 0 раз
Статус: √ проверено
Размер: 13.24 GB
Как cкачать? Как скачать Зимний цветок через торрент | UTorrent

% Раздел Тема Автор DL S | L
Фильмы с авторской озвучкой [ 4.58 GB ] Зимний цветок / Fuyu no hana [1978 BDRip 720p by msltel] AVO msltel Скачать
1 | 0

28-11-2019 20:33  

Отключить всю рекламу на сайте

    Дорогой пользователь! Огромная просьба, поблагодарите релизера, оцените раздачу и оставьте свои комментарий, если Вы скачали Зимний цветок через торрент бесплатно!
    Комментировать посты могут только пользователи прошедшие не сложную регистрацию
    Показать сообщения:    

    Зимний цветок через торрент
    Скачать бесплатно Зимний цветок
    Зимний цветок скачать торрент
    Зимний цветок смотреть онлайн
    Cкачать фильм Зимний цветок бесплатно
    Зимний цветок скачать торрент в хорошем качестве
    Зимний цветок смотреть онлайн бесплатно в хорошем качестве


    Вы не можете начинать темы
    Вы не можете отвечать на сообщения
    Вы не можете редактировать свои сообщения
    Вы не можете удалять свои сообщения
    Вы не можете голосовать в опросах
    Вы не можете прикреплять файлы к сообщениям
    Вы можете скачивать файлы