Ссылка на приватное зеркало всего за 1$. Внимание количество ограничено!!!

OK

1+1

iTunes

мы

OK

1

WEB-DLRip

Джокер

Пифагор

Ведьмак / The Witcher сериал

Лицензия

ПШазам

ОК

Оно 2

iTunes

30
pack

Вам бонус

ВАЖНО

!!Акция!!

Alien_RageХит недели

RePack

Resident Evil 21

ИГРА 18+

pack

RePack

jed

!!Акция!!

Alien_Rage

RePack

fifa19

RePack

Assassins Creed: Odyssey

RePack

NEED FOR SPEED™ PAYBACK

4 сезон

9 сезон

Бесстыжие 9 сезон

Все сериалы

все сериалы на PB.wtf

RePack

FAR CRY 5
  

Знамя кузнеца (Борис Кимягаров) [1961, СССР, сказка, экранизация, SATRip от AVP Studio] pb.wtf

Знамя кузнеца через торрент pb.wtf

Размер: 745 MB | Добавлен: 1 год 2 мес. назад | Торрент скачан:7 раз
Скачать  

06-11-2018 09:15 Знамя кузнеца Скачать торрент  

Знамя кузнеца
Страна: СССР
Производство: Таджикфильм

Жанр: сказка, экранизация
Год выпуска: 1961
Продолжительность: 01:32:12

Перевод: Не требуется
Cубтитры: нет
Оригинальная аудиодорожка: русский

Режиссер: Борис Кимягаров

В ролях:
Мухаммеджан Касымов, Г. Ниязов (II), Махмуд Тахири, Бахтали Сабзалиев, Ходжакули Рахматуллаев, Дильбар Касымова, Гурминдж Завкибеков, Н. Рахматова, Захир Дусматов, Абдульхайр Касымов, Марат Арипов...
Об актёрах подробней

Описание:
По поэме А. Фирдоуси «Шахнаме».
Захок, правитель Царства Змей, с помощью коварства и обмана захватывает соседнее государство и устанавливает там культ богини Змеи. У него на плечах выросли две змеи, которые питаются человеческими мозгами. Каждый день танцовщица, служительница культа, исполняет на площади города танец змеи. Тот, кого она поцелует, обречен быть принесенным в жертву змеям…
Лучший фильм тех лет в своем жанре. Со всей присущей ориентальному кино экзотикой.

Исходник: DVB
Качество видео: SATRip
Формат видео: AVI

Видео: 704x304 (2,35:1), 25,000 кадров/сек, XviD ~ 928 kbps avg, 0.173 bit/pixel
Аудио: 48 kHz, Dolby Digital AC3 2.0, 192 kbps

Раздача от:
Общее
Полное имя : Znamya.kuzneca.1961.SATRip_[New-team]_by_AVP_Studio.avi
Формат : AVI
Формат/Информация : Audio Video Interleave
Размер файла : 745 Мбайт
Продолжительность : 1 ч. 32 м.
Общий поток : 1130 Кбит/сек
Программа кодирования : VirtualDubMod 1.5.10.3 | www.virtualdub-fr.org || (build 2550/release)
Библиотека кодирования : VirtualDubMod build 2550/release

Видео
Идентификатор : 0
Формат : MPEG-4 Visual
Профиль формата : Advanced Simple@L5
Настройки формата : BVOP1 / Custom Matrix
Параметр BVOP формата : 1
Параметр QPel формата : Нет
Параметр GMC формата : Без точки перехода
Параметр матрицы формата : Выборочная
Идентификатор кодека : XVID
Идентификатор кодека/Подсказка : XviD
Продолжительность : 1 ч. 32 м.
Битрейт : 928 Кбит/сек
Ширина : 704 пикселя
Высота : 304 пикселя
Соотношение сторон : 2,35:1
Частота кадров : 25,000 кадров/сек
Цветовое пространство : YUV
Субдискретизация насыщенности : 4:2:0
Битовая глубина : 8 бит
Тип развёртки : Прогрессивная
Метод сжатия : С потерями
Бит/(Пиксели*Кадры) : 0.173
Размер потока : 612 Мбайт (82%)
Библиотека кодирования : XviD 73

Аудио
Идентификатор : 1
Формат : AC-3
Формат/Информация : Audio Coding 3
Коммерческое название : Dolby Digital
Идентификатор кодека : 2000
Продолжительность : 1 ч. 32 м.
Вид битрейта : Постоянный
Битрейт : 192 Кбит/сек
Каналы : 2 канала
Channel layout : L R
Частота : 48,0 КГц
Частота кадров : 31,250 кадров/сек (1536 SPF)
Битовая глубина : 16 бит
Метод сжатия : С потерями
Размер потока : 127 Мбайт (17%)
Выравнивание : Разделение по промежуткам
Продолжительность промежутка : 40 мс. (1,00 видеокадр)
Время предзагрузки промежутка : 500 мс
pb.wtf



Скачать Знамя кузнеца через торрент http://picplus.ru/img/1811/06/248ccb88.png Скачать фильм Знамя кузнеца через торрент бесплантно в хорошем качестве Описание:По поэме А. Фирдоуси «Шахнаме».Захок, правитель Царства Змей, с помощью коварства и обмана захватывает соседнее государство и ... 5 10 1
Info! Золотая раздача, скачанное не засчитывается.
Торрент: Зарегистрирован [2018-11-06 09:15] · скачан: 7 раз
Статус: √ проверено
Размер: 745 MB
Как cкачать? Как скачать Знамя кузнеца через торрент | qTorrent

% Раздел Тема Автор DL S | L
Детские отечественные фильмы [ 1.09 GB ] Знамя кузнеца [1961 СССР сказка экранизация SATRip-AVC от AVP Studio] AVP Studio Скачать
1 | 0

28-11-2019 20:33  

Отключить всю рекламу на сайте

06-11-2018 10:38 Знамя кузнеца Скачать торрент  

Топик был перенесен из форума Кино СССР в форум Детские отечественные фильмы


bober100pb.wtf



    Дорогой пользователь! Огромная просьба, поблагодарите релизера, оцените раздачу и оставьте свои комментарий, если Вы скачали Знамя кузнеца через торрент бесплатно! Внесите свою лепту в развитие PiratBit!
    Комментировать посты могут только пользователи прошедшие не сложную регистрацию
    Показать сообщения:    

    Знамя кузнеца через торрент
    Скачать бесплатно Знамя кузнеца
    Знамя кузнеца скачать торрент
    Знамя кузнеца смотреть онлайн
    Cкачать фильм Знамя кузнеца бесплатно
    Знамя кузнеца скачать торрент в хорошем качестве
    Знамя кузнеца смотреть онлайн бесплатно в хорошем качестве


    Вы не можете начинать темы
    Вы не можете отвечать на сообщения
    Вы не можете редактировать свои сообщения
    Вы не можете удалять свои сообщения
    Вы не можете голосовать в опросах
    Вы не можете прикреплять файлы к сообщениям
    Вы можете скачивать файлы