Всегда рабочее зеркало без VPN и Proxy просто перед .vidak.icu напиши любое слово или цифру, Пример http://0hig.vidak.icu

Лицензия

MVO

1 сезон

1

1 сезон

iTunes

1 сезон

13

1 сезон

Deluxe

pack

Рекомендуем

Repack

30

ВАЖНО

RePack

MK11

RePack

jed

RePack

fifa19

RePack

RDR2

RePack

NEED FOR SPEED™ PAYBACK

Кинопоиск HD

6 сезон

 Острые козырьки 6 сезон

Все сериалы

все сериалы на PB.wtf

RePack

FAR CRY 5
  
Magnet ссылка

Великий уравнитель 2 / The Equalizer 2 (Антуан Фукуа) [2018, боевик, триллер, криминал, UHD WEBRip 2160p] Дубляж - [iTunes] pb.wtf

Великий уравнитель 2 через торрент pb.wtf

Размер: 11.97 GB | Добавлен: 3 года 9 мес. назад | Торрент скачан:442 раза
Смотреть онлайн Великий уравнитель 2 | Скачать    Ребята, помогите собрать деньги на оплату серверов!!!

06-11-2018 15:55 Великий уравнитель 2 Скачать торрент  

Великий уравнитель 2 / The Equalizer 2«There is no equal»
Год выпуска: 2018
Страна: США
Жанр: боевик, триллер, криминал
Продолжительность: 02:00:50
Перевод: Дублированный | iTunes
Субтитры: Русские (Forced, Full), английские (Full)
Режиссер: Антуан Фукуа
В ролях:


Дензел Вашингтон (Robert McCall), Педро Паскаль (Dave York), Эштон Сандерс (Miles Whittaker), Орсон Бин (Sam Rubinstein), Билл Пуллман (Brian Plummer), Мелисса Лео (Susan Plummer), Джонатан Скарф (Resnik), Сакина Джэффри (Fatima), Кази Таугинас (Ari), Гарретт Голден (Kovac), Адам Карст (Turkish Father), Аликан Барлас (Dining Car Porter)
Описание:
Бывший спецагент Роберт Маккол продолжает помогать хорошим, по его мнению, людям и наказывать плохих. ЦРУ считает его погибшим, и только старый друг и бывшая коллега Сьюзан знает его тайну и периодически заходит в гости. Когда на очередном задании в Брюсселе Сьюзан убивают, пытаясь замаскировать это под ограбление, Маккол решат разобраться и отомстить всем причастным.
Рейтинг:

MPAA: R - Лицам до 17 лет обязательно присутствие взрослого
Качество: UHD WEBRip 2160p
Формат: MKV
Видео: HEVC_HDR, ~ 13.4 Мбит/с, 3840x1600, 23.976 Кадр/с
Аудио №1: Rus AC3, 6ch, 384 kbps (DUB iTunes)
Аудио №2: Eng AC3, 6ch, 384 kbps (Original)
Навигация по главам: есть

General
Unique ID : 41584874821873392325123983246041958518 (0x1F48F49FED8235D5141F06F7F2624876)
Complete name : Z:\Downloads\The.Equalizer.2.2018.4k.2160p.WEBRiP.HEVC.HDR.mkv
Format : Matroska
Format version : Version 4 / Version 2
File size : 12.0 GiB
Duration : 2 h 0 min
Overall bit rate : 14.2 Mb/s
Encoded date : UTC 2018-11-06 12:18:41
Writing application : mkvmerge v28.2.0 ('The Awakening') 64-bit
Writing library : libebml v1.3.6 + libmatroska v1.4.9

Video
ID : 1
Format : HEVC
Format/Info : High Efficiency Video Coding
Format profile : Main [email protected]@Main
Codec ID : V_MPEGH/ISO/HEVC
Duration : 2 h 0 min
Bit rate : 13.4 Mb/s
Width : 3 840 pixels
Height : 1 600 pixels
Display aspect ratio : 2.40:1
Frame rate mode : Constant
Frame rate : 23.976 (24000/1001) FPS
Color space : YUV
Chroma subsampling : 4:2:0
Bit depth : 10 bits
Bits/(Pixel*Frame) : 0.091
Stream size : 11.3 GiB (95%)
Default : Yes
Forced : No
Color range : Limited
Color primaries : BT.2020
Transfer characteristics : PQ
Matrix coefficients : BT.2020 non-constant
Mastering display color pri : BT.2020
Mastering display luminance : min: 4.1250 cd/m2, max: 4000 cd/m2
Maximum Content Light Level : 1061 cd/m2
Maximum Frame-Average Light : 465 cd/m2

Audio #1
ID : 2
Format : AC-3
Format/Info : Audio Coding 3
Codec ID : A_AC3
Duration : 2 h 0 min
Bit rate mode : Constant
Bit rate : 384 kb/s
Channel(s) : 6 channels
Channel positions : Front: L C R, Side: L R, LFE
Sampling rate : 48.0 kHz
Frame rate : 31.250 FPS (1536 SPF)
Bit depth : 16 bits
Compression mode : Lossy
Stream size : 332 MiB (3%)
Title : iTunes DUB
Language : Russian
Service kind : Complete Main
Default : Yes
Forced : No

Audio #2
ID : 3
Format : AC-3
Format/Info : Audio Coding 3
Codec ID : A_AC3
Duration : 2 h 0 min
Bit rate mode : Constant
Bit rate : 384 kb/s
Channel(s) : 6 channels
Channel positions : Front: L C R, Side: L R, LFE
Sampling rate : 48.0 kHz
Frame rate : 31.250 FPS (1536 SPF)
Bit depth : 16 bits
Compression mode : Lossy
Stream size : 332 MiB (3%)
Title : Original
Language : English
Service kind : Complete Main
Default : No
Forced : No

Text #1
ID : 4
Format : UTF-8
Codec ID : S_TEXT/UTF8
Codec ID/Info : UTF-8 Plain Text
Duration : 1 h 59 min
Bit rate : 1 b/s
Count of elements : 43
Stream size : 1.60 KiB (0%)
Title : Forced
Language : Russian
Default : Yes
Forced : No

Text #2
ID : 5
Format : UTF-8
Codec ID : S_TEXT/UTF8
Codec ID/Info : UTF-8 Plain Text
Duration : 1 h 59 min
Bit rate : 57 b/s
Count of elements : 1062
Stream size : 50.3 KiB (0%)
Title : Full
Language : Russian
Default : No
Forced : No

Text #3
ID : 6
Format : UTF-8
Codec ID : S_TEXT/UTF8
Codec ID/Info : UTF-8 Plain Text
Duration : 1 h 52 min
Bit rate : 40 b/s
Count of elements : 1283
Stream size : 33.6 KiB (0%)
Title : Full
Language : English
Default : No
Forced : No

Menu
00:00:00.000 : en:1
00:06:49.034 : en:2
00:13:21.634 : en:3
00:16:42.459 : en:4
00:27:09.919 : en:5
00:34:04.458 : en:6
00:41:04.543 : en:7
00:47:07.613 : en:8
00:54:16.333 : en:9
01:02:16.813 : en:10
01:11:17.727 : en:11
01:18:38.125 : en:12
01:25:18.942 : en:13
01:31:39.238 : en:14
01:40:09.330 : en:15
01:52:13.720 : en:16
pb.wtf



Скачать Великий уравнитель 2 через торрент https://d.radikal.ru/d16/1811/ae/43e29f563857.png Скачать, смотреть онлайн Великий уравнитель 2 бесплантно в хорошем качестве Описание: Бывший спецагент Роберт Маккол продолжает помогать хорошим, по его мнению, людям и наказывать плохих. ЦРУ считает его погибшим, и ... 10 10 15
Info! Золотая раздача, скачанное не засчитывается.
Торрент: Зарегистрирован [2018-11-06 15:55] · скачан: 442 раз
Статус: √ проверено
Размер: 11.97 GB
Как cкачать? Как скачать Великий уравнитель 2 через торрент | UTorrent

% Раздел Тема Автор DL S | L
Фильмы (HD 720p, 1080p) (48-60 fps) [ 3.32 GB ] Великий уравнитель 2 / The Equalizer 2 [2018 BDRip 720p / 60 FPS BD CEE] от R.G. HD-Films slaventi-69 Скачать
1 | 1
Фильмы (DVD фильмы) [ 7.74 GB ] Великий уравнитель 2 / The Equalizer 2 [2018 DVD9 ] + [AVO] killermax2013 Скачать
1 | 0
Фильмы (HD 720p, 1080p) (48-60 fps) [ 14.85 GB ] Великий уравнитель 2 / The Equalizer 2 [2018 BDRip 1080p 60 fps] DUB [] bober100 Скачать
1 | 0
Ultra HD (UHD: 2K, 4K, 8K) — видео сверхвысокой чёткости [ 56.03 GB ] Великий уравнитель 2 / The Equalizer 2 [2018 UHD Blu-Ray EUR 2160p] DUB [] bober100 Скачать
1 | 0
Фильмы (Blu-ray, BD-Remux, HDDVD) [ 40.83 GB ] Великий уравнитель 2 / The Equalizer 2 [2018 Blu-ray 1080p] DUB [] bober100 Скачать
1 | 0
Ultra HD (UHD: 2K, 4K, 8K) — видео сверхвысокой чёткости [ 26.32 GB ] Великий уравнитель 2 / The Equalizer 2 [2018 UHD BDRip 2160p] [SDR] DUB + AVO [Дмитрий Есарев] sheker187 Скачать
1 | 0
Фильмы [HD 720p, 1080p] (Хороший звук DUB, MVO) [ 12.25 GB ] Великий уравнитель 2 / The Equalizer 2 [2018 BDRip 1080p] DUB + AVO [Д. Есарев] sheker187 Скачать
1 | 0

28-11-2019 20:33  

Отключить вcю реклaмy на сайте

06-11-2018 17:37 Великий уравнитель 2 Скачать торрент  

Качество подъехало))) СПАСИБО !pb.wtf



09-11-2018 17:34 Великий уравнитель 2 Скачать торрент  

фильм на удивление оказался очень даже, Дэнзел хорошо сыграл, а еще очень понравился Оберин Мартел (Игра престолов ). Но все таки 8 из 10 за предсказуемость сюжета и чего -то ему не хватило все таки)pb.wtf



    Дорогой пользователь! Огромная просьба, поблагодарите релизера, оцените раздачу и оставьте свои комментарий, если Вы скачали Великий уравнитель 2 через торрент бесплатно!
    Комментировать посты могут только пользователи прошедшие не сложную регистрацию
    Показать сообщения:    

    Великий уравнитель 2 через торрент
    Скачать бесплатно Великий уравнитель 2
    Великий уравнитель 2 скачать торрент
    Великий уравнитель 2 смотреть онлайн
    Cкачать фильм Великий уравнитель 2 бесплатно
    Великий уравнитель 2 скачать торрент в хорошем качестве
    Великий уравнитель 2 смотреть онлайн бесплатно в хорошем качестве


    Вы не можете начинать темы
    Вы не можете отвечать на сообщения
    Вы не можете редактировать свои сообщения
    Вы не можете удалять свои сообщения
    Вы не можете голосовать в опросах
    Вы не можете прикреплять файлы к сообщениям
    Вы можете скачивать файлы