Anonymous, доброй ночи, присоединяйтесь к нам в Telegram!, здесь всегда актуальный адрес сайта, оперативная поддержка и многое другое!

>

5.5

iTunes

7.4

iTunes

7.9

iTunes

1

7.7

1 сезон

6.8

iTunes

7.3

1 сезон

13

6.7

1 сезон

8.3

RePack

30

ULTIMATE

pack

9.9

Лицензия

ВАЖНО

ИГРА 18+

pack

7.3

RePack

MK11

7.7

RePack

jed

7.8

RePack

fifa19

8.5

RePack

RDR2

RePack

NEED FOR SPEED™ PAYBACK

4 сезон

9 сезон

Бесстыжие 9 сезон

Все сериалы

все сериалы на PB.wtf

RePack

FAR CRY 5

Anonymous, доброй ночи, мы катастрофически не успеваем собрать деньги на оплату серверов, помогите нам пожалуйста 5,10,15р., для нас важна любая помощь . В качестве благодарности мы отключим Вам всю рекламу на сайте (укажите свой ник в строку Ваше имя)!

×
  
Magnet ссылка

Ольга / Сезон: 3 / Серии: 1-16 из 16 + фильм о фильме (Алексей Нужный, Игорь Волошин) [2018, комедия, WEB-DL 1080p] pb.wtf

Ольга через торрент pb.wtf

Размер: 12.93 GB | Добавлен: 2 года 10 мес. назад | Торрент скачан:340 раз
Смотреть онлайн Ольга | Скачать    Ребята, помогите собрать деньги на оплату серверов!!!

06-11-2018 17:27 Ольга Скачать торрент  

Ольга
Год выпуска: 2018
Страна: Россия
Жанр: комедия
Продолжительность: ~ 00:26:00
Перевод: Не требуется
Субтитры: отсутствуют

Режиссер: Алексей Нужный, Игорь Волошин

rating

В ролях:

Яна Троянова (Ольга Терентьева), Василий Кортуков (Юрий Геннадьевич Терентьев, отец Ольги), Алина Алексеева (Лена, младшая сестра Ольги), Ксения Суркова (Аня, дочь Ольги), Сергей Романович (Андрей, парень Ани), Максим Костромыкин (Григорий Юсупов), Гоша Куценко (Володя), Фархад Гусейнов (водитель), Борис Дергачев, Александр Шам (Марат), Александр Никольский, Александр Силаев (Лютый)

Описание:

Третий сезон «Ольги» отличает повышенная событийность: в каждой серии сюжет может менять ход три-четыре раза, так что не совсем понятно, в какой тупик на этот раз придут герои. И каким образом из него вообще будут выбераться. Юмор имеет терапевтический эффект, ведь относиться всерьез к такому валу проблем попросту вредно для организма. В новых сериях Ольга и компания, как в сказке про репку, продолжат тащить друг друга из болота обыденности и безнадеги, в которое иногда заводит героев необычайно смешная и по-своему счастливая жизнь.

Качество: WEB-DL 1080p
Формат: MKV

Видео: 1920x1080 at 25.000 fps, MPEG-4 AVC, ~5000 kbps avg
Аудио: Russian: 48 kHz, AC3, 2/0 (L,R) ch, ~192 kbps avg
скриншот  скриншот  скриншот  скриншот  

General
Unique ID : 226823327252495121986178551326188206408 (0xAAA495742FB2C553B623A4E193677948)
Complete name : D:\Olga.s03.2018.WEB-DL.(1080p).Getty\Olga.s03e01.2018.WEB-DL.(1080p).Getty.mkv
Format : Matroska
Format version : Version 4 / Version 2
File size : 832 MiB
Duration : 22 min 32 s
Overall bit rate mode : Constant
Overall bit rate : 5 162 kb/s
Movie name : Olga.s03e01.2018.WEB-DL.(1080p).Getty
Encoded date : UTC 2018-11-06 14:04:03
Writing application : mkvmerge v7.8.0 ('River Man') 32bit built on Mar 27 2015 16:18:02
Writing library : libebml v1.3.1 + libmatroska v1.4.2

Video
ID : 1
Format : AVC
Format/Info : Advanced Video Codec
Format profile : Baseline@L4
Format settings : 4 Ref Frames
Format settings, CABAC : No
Format settings, ReFrames : 4 frames
Codec ID : V_MPEG4/ISO/AVC
Duration : 22 min 32 s
Bit rate mode : Constant
Bit rate : 5 000 kb/s
Width : 1 920 pixels
Height : 1 080 pixels
Display aspect ratio : 16:9
Frame rate mode : Constant
Frame rate : 25.000 FPS
Standard : PAL
Color space : YUV
Chroma subsampling : 4:2:0
Bit depth : 8 bits
Scan type : Progressive
Bits/(Pixel*Frame) : 0.096
Stream size : 801 MiB (96%)
Default : Yes
Forced : No
Color range : Limited
Color primaries : BT.709
Transfer characteristics : BT.709
Matrix coefficients : BT.709

Audio
ID : 2
Format : AC-3
Format/Info : Audio Coding 3
Codec ID : A_AC3
Duration : 22 min 32 s
Bit rate mode : Constant
Bit rate : 192 kb/s
Channel(s) : 2 channels
Channel positions : Front: L R
Sampling rate : 48.0 kHz
Frame rate : 31.250 FPS (1536 SPF)
Bit depth : 16 bits
Compression mode : Lossy
Stream size : 30.9 MiB (4%)
Service kind : Complete Main
Default : Yes
Forced : No

Внимание! Раздача ведётся путём добавления новых серий; при каждом добавлении создаётся новый торрент. Чтобы начать докачку новой серии, пользователям необходимо сделать следующее:
(1) остановить скачивание,
(2) удалить старый торрент у себя из клиента (старые серии удалять не надо),
(3) скачать новый торрент и запустить его у себя в клиенте вместо старого, при этом указать клиенту путь в старую папку куда и должно происходить скачивание новых серий.
Ваш клиент при этом должен произвести хеширование (проверку) старой папки (если не производит сам - помогите ему сделать это), и будет докачивать только те серии которых у вас ещё нет. Старые серии при этом не удаляются, а продолжают раздаваться!
Eсли вы уже удалили старые серии, то предотвратить повторную закачку старых серий можно, отжав галочку в соответствующих местах при запуске нового торрента. По возможности, желательно не удалять старые серии как можно дольше чтобы релизёр не столько продолжал раздавать старые серии, а смог сконцентрироваться на новых.
pb.wtf



Скачать Ольга через торрент https://a.radikal.ru/a41/1811/01/c03b07ce2089.jpg Скачать, смотреть онлайн Ольга бесплантно в хорошем качестве Описание: Третий сезон «Ольги» отличает повышенная событийность: в каждой серии сюжет может менять ход три-четыре раза, так что не совсем ... 9.7 10 19
Торрент: Зарегистрирован [2018-11-29 19:08] · скачан: 340 раз
Статус: √ проверено
Размер: 12.93 GB
Как cкачать? Как скачать Ольга через торрент | UTorrent

% Раздел Тема Автор DL S | L
TNT serials [ 4.64 GB ] Ольга / Сезон: 3 / Серии: 1-16 из 16 + фильм о фильме [2018 WEB-DLRip] bober100 Скачать
2 | 0
TNT serials [ 20.04 GB ] Ольга / Сезон: 3 / Серии: 1-16 из 16 + фильм о фильме [2018 HDTV 1080i] bober100 Скачать
1 | 0
TNT serials [ 4.29 GB ] Ольга / Сезон: 3 / Серии: 1-16 из 16 + Фильм о фильме [2018 HDTVRip] bober100 Скачать
1 | 0


Последний раз редактировалось: bober100 (2018-11-29 19:08), всего редактировалось 12 раз(а)

28-11-2019 20:33  

Отключить всю рекламу на сайте

06-11-2018 17:41 Ольга Скачать торрент  

Что?! Этот уёбищный быдло-тварский сериал ещё не закрыли?!
Помню, как посмотрел первые 15 минут первой серии первого сезона и, ощутив одновременно острый рвотный позыв и не менее острую жалость к этой быдло-культурологии, закрыл просмотр.pb.wtf



09-11-2018 13:54 Ольга Скачать торрент  

У меня так же было когда увидел передачу" Время покажет"pb.wtf



19-11-2018 17:54 Ольга Скачать торрент  

Прикольный сериал! Хаха над проблемами выше! У вас проблемы вероятно ребята)))pb.wtf



29-11-2018 19:23 Ольга Скачать торрент  

И не говори, чего прицепились к сериалу, никто не заставляет смотреть. На вкус и цвет ))))pb.wtf



    Дорогой пользователь! Огромная просьба, поблагодарите релизера, оцените раздачу и оставьте свои комментарий, если Вы скачали Ольга через торрент бесплатно!
    Комментировать посты могут только пользователи прошедшие не сложную регистрацию
    Показать сообщения:    

    Ольга через торрент
    Скачать бесплатно Ольга
    Ольга скачать торрент
    Ольга смотреть онлайн
    Cкачать фильм Ольга бесплатно
    Ольга скачать торрент в хорошем качестве
    Ольга смотреть онлайн бесплатно в хорошем качестве


    Вы не можете начинать темы
    Вы не можете отвечать на сообщения
    Вы не можете редактировать свои сообщения
    Вы не можете удалять свои сообщения
    Вы не можете голосовать в опросах
    Вы не можете прикреплять файлы к сообщениям
    Вы можете скачивать файлы