Anonymous, доброе утро, присоединяйтесь к нам в Telegram!, здесь всегда актуальный адрес сайта, оперативная поддержка и многое другое!

>

5.6

iTunes

7.4

iTunes

5.7

MVO

1

7.7

1 сезон

6.8

iTunes

7.3

1 сезон

13

6.7

1 сезон

8.3

RePack

30

ULTIMATE

pack

9.9

Лицензия

ВАЖНО

ИГРА 18+

pack

7.3

RePack

MK11

7.7

RePack

jed

7.8

RePack

fifa19

8.5

RePack

RDR2

RePack

NEED FOR SPEED™ PAYBACK

4 сезон

9 сезон

Бесстыжие 9 сезон

Все сериалы

все сериалы на PB.wtf

RePack

FAR CRY 5

Anonymous, доброе утро, мы катастрофически не успеваем собрать деньги на оплату серверов, помогите нам пожалуйста 5,10,15р., для нас важна любая помощь . В качестве благодарности мы отключим Вам всю рекламу на сайте (укажите свой ник в строку Ваше имя)!

×
  
Magnet ссылка

Ольга / Сезон: 3 / Серии: 1-16 из 16 (Алексей Нужный, Игорь Волошин) [2018, комедия, WEB-DL 720p] pb.wtf

Ольга через торрент pb.wtf

Размер: 6.5 GB | Добавлен: 2 года 10 мес. назад | Торрент скачан:122 раза
Смотреть онлайн Ольга | Скачать    Ребята, помогите собрать деньги на оплату серверов!!!

06-11-2018 18:05 Ольга Скачать торрент  

Ольга
Год выпуска: 2018
Страна: Россия
Жанр: комедия
Продолжительность: ~ 00:26:00
Перевод: Не требуется
Субтитры: отсутствуют

Режиссер: Алексей Нужный, Игорь Волошин

rating

В ролях:

Яна Троянова (Ольга Терентьева), Василий Кортуков (Юрий Геннадьевич Терентьев, отец Ольги), Алина Алексеева (Лена, младшая сестра Ольги), Ксения Суркова (Аня, дочь Ольги), Сергей Романович (Андрей, парень Ани), Максим Костромыкин (Григорий Юсупов), Гоша Куценко (Володя), Фархад Гусейнов (водитель), Борис Дергачев, Александр Шам (Марат), Александр Никольский, Александр Силаев (Лютый)

Описание:

Третий сезон «Ольги» отличает повышенная событийность: в каждой серии сюжет может менять ход три-четыре раза, так что не совсем понятно, в какой тупик на этот раз придут герои. И каким образом из него вообще будут выбераться. Юмор имеет терапевтический эффект, ведь относиться всерьез к такому валу проблем попросту вредно для организма. В новых сериях Ольга и компания, как в сказке про репку, продолжат тащить друг друга из болота обыденности и безнадеги, в которое иногда заводит героев необычайно смешная и по-своему счастливая жизнь.

Качество: WEB-DL 720p
Формат: MKV

Видео: MPEG4 AVC Video, H264, 16:9, 1280x720, 25 fps, ~2600 kbps, 0.113 bit/pixel
Аудио: AC3 Dolby Digital, 48.0 kHz, 2/0 (L,R) ch, 192 kbps
скриншот  скриншот  скриншот  скриншот  скриншот  

General
Unique ID : 219087875972202247581686452216681553763 (0xA4D2CA42991C023FA800E1CCCEE95F63)
Complete name : D:\Olga.s03.(2018).WEB-DL.720p.ExKinoRay\Olga.s03.e01.(2018).WEB-DL.720p.ExKinoRay.mkv
Format : Matroska
Format version : Version 2
File size : 447 MiB
Duration : 22 min 32 s
Overall bit rate mode : Constant
Overall bit rate : 2 773 kb/s
Encoded date : UTC 2018-11-06 16:17:56
Writing application : mkvmerge v5.8.0 ('No Sleep / Pillow') built on Sep 2 2012 15:37:04
Writing library : libebml v1.2.3 + libmatroska v1.3.0

Video
ID : 1
Format : AVC
Format/Info : Advanced Video Codec
Format profile : Baseline@L4
Format settings : 4 Ref Frames
Format settings, CABAC : No
Format settings, ReFrames : 4 frames
Codec ID : V_MPEG4/ISO/AVC
Duration : 22 min 32 s
Bit rate mode : Constant
Bit rate : 2 600 kb/s
Width : 1 280 pixels
Height : 720 pixels
Display aspect ratio : 16:9
Frame rate mode : Constant
Frame rate : 25.000 FPS
Standard : PAL
Color space : YUV
Chroma subsampling : 4:2:0
Bit depth : 8 bits
Scan type : Progressive
Bits/(Pixel*Frame) : 0.113
Stream size : 407 MiB (91%)
Language : Russian
Default : Yes
Forced : No
Color range : Limited
Color primaries : BT.709
Transfer characteristics : BT.709
Matrix coefficients : BT.709

Audio
ID : 2
Format : AC-3
Format/Info : Audio Coding 3
Codec ID : A_AC3
Duration : 22 min 32 s
Bit rate mode : Constant
Bit rate : 192 kb/s
Channel(s) : 2 channels
Channel positions : Front: L R
Sampling rate : 48.0 kHz
Frame rate : 31.250 FPS (1536 SPF)
Bit depth : 16 bits
Compression mode : Lossy
Stream size : 30.9 MiB (7%)
Language : Russian
Service kind : Complete Main
Default : Yes
Forced : No

Внимание! Раздача ведётся путём добавления новых серий; при каждом добавлении создаётся новый торрент. Чтобы начать докачку новой серии, пользователям необходимо сделать следующее:
(1) остановить скачивание,
(2) удалить старый торрент у себя из клиента (старые серии удалять не надо),
(3) скачать новый торрент и запустить его у себя в клиенте вместо старого, при этом указать клиенту путь в старую папку куда и должно происходить скачивание новых серий.
Ваш клиент при этом должен произвести хеширование (проверку) старой папки (если не производит сам - помогите ему сделать это), и будет докачивать только те серии которых у вас ещё нет. Старые серии при этом не удаляются, а продолжают раздаваться!
Eсли вы уже удалили старые серии, то предотвратить повторную закачку старых серий можно, отжав галочку в соответствующих местах при запуске нового торрента. По возможности, желательно не удалять старые серии как можно дольше чтобы релизёр не столько продолжал раздавать старые серии, а смог сконцентрироваться на новых.
pb.wtf



Скачать Ольга через торрент https://a.radikal.ru/a41/1811/01/c03b07ce2089.jpg Скачать, смотреть онлайн Ольга бесплантно в хорошем качестве Описание: Третий сезон «Ольги» отличает повышенная событийность: в каждой серии сюжет может менять ход три-четыре раза, так что не совсем ... 9.8 10 20
Торрент: Зарегистрирован [2018-11-29 17:43] · скачан: 122 раз
Статус: √ проверено
Размер: 6.5 GB
Как cкачать? Как скачать Ольга через торрент | UTorrent

% Раздел Тема Автор DL S | L
TNT serials [ 12.93 GB ] Ольга / Сезон: 3 / Серии: 1-16 из 16 + фильм о фильме [2018 WEB-DL 1080p] bober100 Скачать
1 | 0
TNT serials [ 43.64 GB ] Ольга / Сезоны: 1-3 / Серии: 1-56 из 56 [2016-2018 WEB-DL 1080p] bober100 Скачать
1 | 0
TNT serials [ 4.64 GB ] Ольга / Сезон: 3 / Серии: 1-16 из 16 + фильм о фильме [2018 WEB-DLRip] bober100 Скачать
1 | 0
TNT serials [ 20.04 GB ] Ольга / Сезон: 3 / Серии: 1-16 из 16 + фильм о фильме [2018 HDTV 1080i] bober100 Скачать
1 | 0
TNT serials [ 4.29 GB ] Ольга / Сезон: 3 / Серии: 1-16 из 16 + Фильм о фильме [2018 HDTVRip] bober100 Скачать
1 | 0
TNT serials [ 4.21 GB ] Ольга / Сезон: 3 / Серии: 1-16 из 16 [2018 WEB-DLRip-AVC] bober100 Скачать
2 | 0

28-11-2019 20:33  

Отключить всю рекламу на сайте

    Дорогой пользователь! Огромная просьба, поблагодарите релизера, оцените раздачу и оставьте свои комментарий, если Вы скачали Ольга через торрент бесплатно!
    Комментировать посты могут только пользователи прошедшие не сложную регистрацию
    Показать сообщения:    

    Ольга через торрент
    Скачать бесплатно Ольга
    Ольга скачать торрент
    Ольга смотреть онлайн
    Cкачать фильм Ольга бесплатно
    Ольга скачать торрент в хорошем качестве
    Ольга смотреть онлайн бесплатно в хорошем качестве


    Вы не можете начинать темы
    Вы не можете отвечать на сообщения
    Вы не можете редактировать свои сообщения
    Вы не можете удалять свои сообщения
    Вы не можете голосовать в опросах
    Вы не можете прикреплять файлы к сообщениям
    Вы можете скачивать файлы