Доктор Стрэндж

Лицензия

Добыча

Дубляж

Уэнсдэй

1 сезон

Тор

Дубляж

В эфире

Дубляж

Там, где раки поют

MVO

Властелин колец

1 сезон

Deluxe

pack

Рекомендуем

30

Пиратка

ВАЖНО

ВАЖНО

Ghostwire

Пиратка

jed

RePack

nioh2

RePack

RDR2

RePack

NEED FOR SPEED™ PAYBACK

RePack

скачать торрент

Кинопоиск HD

Острые козырьки 6 сезон

6 сезон

FAR CRY 6

RePack

скачать торрент

Лицензия

скачать торрент

MVO

1

1 сезон

скачать торрент

1 сезон

скачать торрент

Лицензия

  

Житие Брайана по Монти Пайтону / Жизнь Брайана по Монти Пайтон / Monty Python's Life of Brian (Терри Джонс) [1979, комедия, BDRemux 1080p] 4x [AVO] (Михалев, Живов, Иванов, Королев) + [VO] (Владимир Вихров)

Житие Брайана по Монти Пайтону через торрент pb.wtf

Размер: 20.95 GB | Добавлен: 4 года 1 мес. назад | Торрент скачан:18 раз
Смотреть онлайн | Скачать   

06-11-2018 19:04 Житие Брайана по Монти Пайтону Скачать торрент  


Жизнь Брайана по Монти Пайтону / Monty Python's Life of Brian
Год выпуска: 1979
Страна: Великобритания
Жанр: Сатирическая комедия
Продолжительность: 01:33:42
Перевод 1: Авторский (одноголосый) Михалев
Перевод 2: Авторский (одноголосый) Живов
Перевод 3: Авторский (одноголосый) Иванов
Перевод 4: Авторский (одноголосый) Королев
Перевод 5: Профессиональный (одноголосый) РЕН-ТВ, текст читает Владимир Вихров
Субтитры: русские (3 вида: перевод etab, редактированый HisDudeness; Л. Мерзона и неизвестного автора), английские
Навигация по главам: есть (16 глав)
Режиссер: Терри Джонс / Terry Jones

В ролях: Грэм Чэпмен /Graham Chapman/, Джон Клиз /John Cleese/, Терри Гиллиам /Terry Gilliam/, Эрик Айдл /Eric Idle/, Терри Джонс /Terry Jones/, Майкл Палин /Michael Palin/
Описание: Оказывается, 2000 лет назад волхвы слегка промахнулись и из-за небольшой астрономической ошибки явили, было, свои дары не тому новорожденному, которому следовало. Дитя звали Брайан, и он просто родился в тот же час и лишь домом дальше, чем Сами-Знаете-Кто. По причине сего инцидента потом все путали Брайана с Мессией, а ему было лень разубеждать своих поклонников. Однако в почитании масс помимо приятной стороны есть и другая, и вот Брайан с тревогой обнаруживает себя в роли отчаянного религиозного лидера народного Фронта Иудеи, борющегося за свободу от римского ига – и в эпицентре больших неприятностей с оккупационными властями!
Фильм англичанина Терри Джонса "Life of Brian", фарсовое изложение евангельских событий, возглавил хит-парад пятидесяти лучших комедий всех времен и народов по версии зрителей британского телеканала Channel 4. В опросе приняли участие 22 тысячи человек, сообщает телекомпания BBC.

Фильм не политкорректен - от того в свое время его показ был запрещен в ряде стран.
rating

Качество: BDRemux {Life of Brian 1979 1080p Blu-Ray H.264 TrueHD 5.1-CtrlHD} -
Формат: MKV
Видео: MPEG-4 AVC Video / 27965 kbps / 1080p / 23.976 fps / 16:9 / High Profile 4.1
Аудио: Dolby Digital Audio Russian 2.0 / 48 kHz / 192 kbps | Алексей Михалев
Аудио: Dolby Digital Audio Russian 2.0 / 48 kHz / 192 kbps | Юрий Живов
Аудио: Dolby Digital Audio Russian 2.0 / 48 kHz / 192 kbps | перевод Михалева читает Михаил Иванов
Аудио: Dolby Digital Audio Russian 2.0 / 48 kHz / 192 kbps | Владимир Королев
Аудио: Dolby Digital Audio Russian 2.0 / 48 kHz / 192 kbps | РЕН-ТВ, текст читает Владимир Вихров
Аудио: DTS-HD Master Audio English 5.1 / 48 kHz / 2688 kbps / 24-bit (DTS Core: 5.1 / 48 kHz / 1509 kbps / 24-bit)
Аудио: Dolby Digital Audio English 2.0 / 48 kHz / 192 kbps | Commentary by Terry Gilliam, Terry Jones, and Eric Idle
Аудио: Dolby Digital Audio English 2.0 / 48 kHz / 192 kbps | Commentary by John Cleese and Michael Paulin
General
Complete name : W:\Фильмы\Житие Брайана по Монти Пайтону (1979. Monty Python's Life of Brian).mkv
Format : Matroska
File size : 20.9 GiB
Duration : 1h 33mn
Overall bit rate : 32.0 Mbps
Movie name : http://rutracker.org/forum/viewtopic.php?t=4216776
Encoded date : UTC 2012-10-14 22:47:40
Writing application : mkvmerge v4.9.1 ('Ich will') сборка от Jul 11 2011 23:53:15
Writing library : libebml v1.2.1 + libmatroska v1.1.1

Video
ID : 1
Format : AVC
Format/Info : Advanced Video Codec
Format profile : [email protected]
Format settings, CABAC : Yes
Format settings, ReFrames : 2 frames
Muxing mode : Container [email protected]
Codec ID : V_MPEG4/ISO/AVC
Duration : 1h 33mn
Bit rate mode : Variable
Width : 1 920 pixels
Height : 1 080 pixels
Display aspect ratio : 16:9
Frame rate : 23.976 fps
Color space : YUV
Chroma subsampling : 4:2:0
Bit depth : 8 bits
Scan type : Progressive
Title : Life of Brian 1979 1080p Blu-Ray H.264 TrueHD 5.1-CtrlHD
Language : English

Audio #1
ID : 2
Format : AC-3
Format/Info : Audio Coding 3
Mode extension : CM (complete main)
Codec ID : A_AC3
Duration : 1h 33mn
Bit rate mode : Constant
Bit rate : 192 Kbps
Channel(s) : 2 channels
Channel positions : Front: L R
Sampling rate : 48.0 KHz
Bit depth : 16 bits
Stream size : 129 MiB (1%)
Title : AVO [Алексей Михалев]
Language : Russian

Audio #2
ID : 3
Format : AC-3
Format/Info : Audio Coding 3
Mode extension : CM (complete main)
Codec ID : A_AC3
Duration : 1h 33mn
Bit rate mode : Constant
Bit rate : 192 Kbps
Channel(s) : 2 channels
Channel positions : Front: L R
Sampling rate : 48.0 KHz
Bit depth : 16 bits
Stream size : 129 MiB (1%)
Title : AVO [Юрий Живов]
Language : Russian

Audio #3
ID : 4
Format : AC-3
Format/Info : Audio Coding 3
Mode extension : CM (complete main)
Codec ID : A_AC3
Duration : 1h 33mn
Bit rate mode : Constant
Bit rate : 192 Kbps
Channel(s) : 2 channels
Channel positions : Front: L R
Sampling rate : 48.0 KHz
Bit depth : 16 bits
Stream size : 129 MiB (1%)
Title : VO [перевод Михалева читает Михаил Иванов]
Language : Russian

Audio #4
ID : 5
Format : AC-3
Format/Info : Audio Coding 3
Mode extension : CM (complete main)
Codec ID : A_AC3
Duration : 1h 33mn
Bit rate mode : Constant
Bit rate : 192 Kbps
Channel(s) : 2 channels
Channel positions : Front: L R
Sampling rate : 48.0 KHz
Bit depth : 16 bits
Stream size : 129 MiB (1%)
Title : AVO [Владимир Королев]
Language : Russian

Audio #5
ID : 6
Format : AC-3
Format/Info : Audio Coding 3
Mode extension : CM (complete main)
Codec ID : A_AC3
Duration : 1h 33mn
Bit rate mode : Constant
Bit rate : 192 Kbps
Channel(s) : 2 channels
Channel positions : Front: L R
Sampling rate : 48.0 KHz
Bit depth : 16 bits
Stream size : 129 MiB (1%)
Title : VO [РЕН-ТВ, текст читает Владимир Вихров]
Language : Russian

Audio #6
ID : 7
Format : DTS
Format/Info : Digital Theater Systems
Format profile : MA
Codec ID : A_DTS
Duration : 1h 33mn
Bit rate mode : Variable
Channel(s) : 6 channels
Channel positions : Front: L C R, Side: L R, LFE
Sampling rate : 48.0 KHz
Bit depth : 24 bits
Language : English

Audio #7
ID : 8
Format : AC-3
Format/Info : Audio Coding 3
Mode extension : CM (complete main)
Codec ID : A_AC3
Duration : 1h 33mn
Bit rate mode : Constant
Bit rate : 192 Kbps
Channel(s) : 2 channels
Channel positions : Front: L R
Sampling rate : 48.0 KHz
Bit depth : 16 bits
Stream size : 129 MiB (1%)
Title : Commentary by Terry Gilliam, Terry Jones, and Eric Idle
Language : English

Audio #8
ID : 9
Format : AC-3
Format/Info : Audio Coding 3
Mode extension : CM (complete main)
Codec ID : A_AC3
Duration : 1h 33mn
Bit rate mode : Constant
Bit rate : 192 Kbps
Channel(s) : 2 channels
Channel positions : Front: L R
Sampling rate : 48.0 KHz
Bit depth : 16 bits
Stream size : 129 MiB (1%)
Title : Commentary by John Cleese and Michael Paulin
Language : English

Text #1
ID : 10
Format : UTF-8
Codec ID : S_TEXT/UTF8
Codec ID/Info : UTF-8 Plain Text
Title : перевод etab, редактированы HisDudeness
Language : Russian

Text #2
ID : 11
Format : UTF-8
Codec ID : S_TEXT/UTF8
Codec ID/Info : UTF-8 Plain Text
Title : перевод Л.Мерзона
Language : Russian

Text #3
ID : 12
Format : UTF-8
Codec ID : S_TEXT/UTF8
Codec ID/Info : UTF-8 Plain Text
Language : Russian

Text #4
ID : 13
Format : UTF-8
Codec ID : S_TEXT/UTF8
Codec ID/Info : UTF-8 Plain Text
Language : English

Menu
00:00:00.000 : en:00:00:00.000
00:06:44.654 : en:00:06:44.654
00:11:26.811 : en:00:11:26.811
00:14:07.388 : en:00:14:07.388
00:18:04.166 : en:00:18:04.166
00:23:44.047 : en:00:23:44.047
00:27:32.734 : en:00:27:32.734
00:30:54.018 : en:00:30:54.018
00:38:12.164 : en:00:38:12.164
00:42:29.546 : en:00:42:29.546
00:48:12.347 : en:00:48:12.347
00:55:56.936 : en:00:55:56.936
01:02:50.767 : en:01:02:50.767
01:09:59.987 : en:01:09:59.987
01:20:39.042 : en:01:20:39.042
01:29:22.648 : en:01:29:22.648
скриншот  скриншот  скриншот  



Скачать Житие Брайана по Монти Пайтону через торрент http://s019.radikal.ru/i638/1211/ea/ec2eadf5ee29.jpg Скачать, смотреть онлайн Житие Брайана по Монти Пайтону бесплантно в хорошем качестве Описание: Оказывается, 2000 лет назад волхвы слегка промахнулись и из-за небольшой астрономической ошибки явили, было, свои дары не тому ... 10 10 2
Info! Золотая раздача, скачанное не засчитывается.
Торрент: Зарегистрирован [2018-11-06 19:04] · скачан: 18 раз
Статус: √ проверено
Размер: 20.95 GB
Как cкачать? Как скачать Житие Брайана по Монти Пайтону через торрент | UTorrent

28-11-2019 20:33  


Отключить вcю реклaмy на сайте, в т.ч. и в плеере онлайн просмотра!

    Дорогой пользователь! Огромная просьба, поблагодарите релизера, оцените раздачу и оставьте свои комментарий, если Вы скачали Житие Брайана по Монти Пайтону через торрент бесплатно!!
    Комментировать посты могут только пользователи прошедшие не сложную регистрацию
    Показать сообщения:    


    Житие Брайана по Монти Пайтону через торрент
    Скачать бесплатно Житие Брайана по Монти Пайтону
    Житие Брайана по Монти Пайтону скачать торрент
    Житие Брайана по Монти Пайтону смотреть онлайн
    Cкачать фильм Житие Брайана по Монти Пайтону бесплатно
    Житие Брайана по Монти Пайтону скачать торрент в хорошем качестве
    Житие Брайана по Монти Пайтону смотреть онлайн бесплатно в хорошем качестве
    Вы не можете начинать темы
    Вы не можете отвечать на сообщения
    Вы не можете редактировать свои сообщения
    Вы не можете удалять свои сообщения
    Вы не можете голосовать в опросах
    Вы не можете прикреплять файлы к сообщениям
    Вы можете скачивать файлы
    Житие Брайана по Монти Пайтону / Жизнь Брайана по Монти Пайтон / Monty Python's Life of Brian [1979, комедия, BDRemux 1080p] 4x [AVO] + [VO] смотреть онлайн, скачать торрент picoco.icu