Ссылка на приватное зеркало нашего сайта всего за 1$. Внимание количество ограничено!!!

2 сезон

iTunes

1 сезон

1

iTunes

iTunes

iTunes

1 сезон

RePack

30

ИГРА 18+

pack

ВАЖНО

!!Акция!!

Alien_RageХит недели

RePack

MK11
pack

Забери бонус

RePack

jed

!!Акция!!

Alien_Rage

RePack

fifa19

RePack

Assassins Creed: Odyssey

RePack

NEED FOR SPEED™ PAYBACK

4 сезон

9 сезон

Бесстыжие 9 сезон

Все сериалы

все сериалы на PB.wtf

RePack

FAR CRY 5
  

Неуловимые / Сезон: 1 / Серии: 1-8 из 8 (Владимир Виноградов) [2018, комедия, приключения, WEB-DLRip] pb.wtf

Неуловимые через торрент pb.wtf

Размер: 5.09 GB | Добавлен: 1 год 9 мес. назад | Торрент скачан:110 раз
Скачать  

07-11-2018 04:15 Неуловимые Скачать торрент  

Неуловимые
Год выпуска: 2018
Страна: Россия
Жанр: комедия, приключения
Продолжительность: ~ 00:48:00
Субтитры: отсутствуют

Режиссер: Владимир Виноградов



В ролях:

Оксана Фандера, Сергей Газаров, Александр Лыков, Юрий Стоянов, Евгений Березин, Таисия Шипилова, Николай Сороканов, Максим Емельянов, Владислав Тирон, Александр Фисенко

Описание:

Все газеты мира облетает весть, что Давид Ойстрах отыграет концерт на уникальном инструменте в родной Одессе! Из Москвы скрипку перевозят в специальном вагоне поезда. Два легендарных черноморских вора Лаврик и Кобзарь решаются на «ограбление века»: они задумали похитить подарок королевы. Чтобы провернуть задуманное, опытные мастера собирают целую команду из молодых умельцев воровского дела. В это же время на родину после почти двадцати лет отсутствия возвращается красавица и авантюристка, некогда настоящая королева околокриминального мира - Фирочка Танцорка. Операция принимает неожиданный поворот, когда в дело вмешивается любовь.

Качество: WEB-DLRip
Формат: AVI

Видео: XviD, ~ 1650 Кбит/с, 720x400
Аудио: AC3, 2 ch, 192 Кбит/с
скриншот  скриншот  скриншот  скриншот  

Общее
Полное имя : D:\Neulovimye.2017.WEB-DLRip.25Kuzmich\Neulovimye.(01.seriya.iz.08).WEB-DLRip.25Kuzmich.avi
Формат : AVI
Формат/Информация : Audio Video Interleave
Размер файла : 629 Мбайт
Продолжительность : 47 м. 27 с.
Общий поток : 1852 Кбит/сек
Программа кодирования : VirtualDubMod 1.5.10.3 | www.virtualdub-fr.org || (build 2550/release)
Библиотека кодирования : VirtualDubMod build 2550/release

Видео
Идентификатор : 0
Формат : MPEG-4 Visual
Профиль формата : Advanced Simple@L5
Параметр BVOP формата : 1
Параметр QPel формата : Нет
Параметр GMC формата : Без точки перехода
Параметр матрицы формата : Default (MPEG)
Идентификатор кодека : XVID
Идентификатор кодека/Подсказка : XviD
Продолжительность : 47 м. 27 с.
Продолжительность оригинала : 46 м. 46 с.
Битрейт : 1658 Кбит/сек
Ширина : 720 пикселей
Высота : 400 пикселей
Соотношение сторон : 16:9
Частота кадров : 25,000 кадров/сек
Цветовое пространство : YUV
Субдискретизация насыщенности : 4:2:0
Битовая глубина : 8 бит
Тип развёртки : Прогрессивная
Метод сжатия : С потерями
Бит/(Пиксели*Кадры) : 0.230
Размер потока : 555 Мбайт (88%)
Библиотека кодирования : XviD 1.2.1 (UTC 2008-12-04)

Аудио
Идентификатор : 1
Формат : AC-3
Формат/Информация : Audio Coding 3
Расширение режима : CM (complete main)
Параметр Endianness формата : Big
Идентификатор кодека : 2000
Продолжительность : 47 м. 27 с.
Продолжительность оригинала : 46 м. 46 с.
Вид битрейта : Постоянный
Битрейт : 192 Кбит/сек
Каналы : 2 канала
Расположение каналов : Front: L R
Частота : 48,0 КГц
Частота кадров : 31,250 кадров/сек (1536 spf)
Метод сжатия : С потерями
Задержка видео : 12 мс.
Размер потока : 64,2 Мбайт (10%)
Выравнивание : Разделение по промежуткам
Продолжительность промежутка : 40 мс. (1,00 видеокадр)
Время предзагрузки промежутка : 500 мс.

Внимание! Раздача ведётся путём добавления новых серий; при каждом добавлении создаётся новый торрент. Чтобы начать докачку новой серии, пользователям необходимо сделать следующее:
(1) остановить скачивание,
(2) удалить старый торрент у себя из клиента (старые серии удалять не надо),
(3) скачать новый торрент и запустить его у себя в клиенте вместо старого, при этом указать клиенту путь в старую папку куда и должно происходить скачивание новых серий.
Ваш клиент при этом должен произвести хеширование (проверку) старой папки (если не производит сам - помогите ему сделать это), и будет докачивать только те серии которых у вас ещё нет. Старые серии при этом не удаляются, а продолжают раздаваться!
Eсли вы уже удалили старые серии, то предотвратить повторную закачку старых серий можно, отжав галочку в соответствующих местах при запуске нового торрента. По возможности, желательно не удалять старые серии как можно дольше чтобы релизёр не столько продолжал раздавать старые серии, а смог сконцентрироваться на новых.
pb.wtf



Скачать Неуловимые через торрент http://i98.fastpic.ru/big/2018/1106/81/0602eb1368233961f65e3b138aa03681.jpg Скачать фильм Неуловимые через торрент бесплантно в хорошем качестве Описание: Все газеты мира облетает весть, что Давид Ойстрах отыграет концерт на уникальном инструменте в родной Одессе! Из Москвы скрипку ... 10 10 4
Торрент: Зарегистрирован [2018-12-30 13:35] · скачан: 110 раз
Статус: √ проверено
Размер: 5.09 GB
Как cкачать? Как скачать Неуловимые через торрент | qTorrent

% Раздел Тема Автор DL S | L
Наши сериалы [ 18.29 GB ] Неуловимые / Сезон: 1 / Серии: 1-8 из 8 [2018 HDTV 1080p] [Русский] R.G.Generalfilm White Smoke Скачать
1 | 0
Наши сериалы [ 14.6 GB ] Неуловимые / Сезон: 1 / Серии: 1-8 из 8 [2018 WEB-DL 1080p] bober100 Скачать
1 | 0

28-11-2019 20:33  

Отключить всю рекламу на сайте

    Дорогой пользователь! Огромная просьба, поблагодарите релизера, оцените раздачу и оставьте свои комментарий, если Вы скачали Неуловимые через торрент бесплатно! Внесите свою лепту в развитие PiratBit!
    Комментировать посты могут только пользователи прошедшие не сложную регистрацию
    Показать сообщения:    

    Неуловимые через торрент
    Скачать бесплатно Неуловимые
    Неуловимые скачать торрент
    Неуловимые смотреть онлайн
    Cкачать фильм Неуловимые бесплатно
    Неуловимые скачать торрент в хорошем качестве
    Неуловимые смотреть онлайн бесплатно в хорошем качестве


    Вы не можете начинать темы
    Вы не можете отвечать на сообщения
    Вы не можете редактировать свои сообщения
    Вы не можете удалять свои сообщения
    Вы не можете голосовать в опросах
    Вы не можете прикреплять файлы к сообщениям
    Вы можете скачивать файлы