1 сезон

3 сезон

iTunes

1

iTunes

DUB Netflix

iTunes

13

1 сезон

RePack

30

Deluxe

pack

Легкие деньги

ВАЖНО

ИГРА 18+

pack

RePack

MK11

RePack

jed

RePack

fifa19

RePack

RDR2

RePack

NEED FOR SPEED™ PAYBACK

4 сезон

9 сезон

Бесстыжие 9 сезон

Все сериалы

все сериалы на PB.wtf

RePack

FAR CRY 5

Anonymous, добрый вечер, мы не успеваем до 1 числа собрать деньги на оплату серверов, помогите нам пожалуйста в это трудное время. В качестве благодарности мы отключим Вам всю рекламу на сайте (укажите свой ник в строку Ваше имя)!

×
  
Magnet ссылка

Дмитро Горицвит (Николай Макаренко) [1961, СССР, драма, DVDRip от AVP Studio] pb.wtf

Дмитро Горицвит через торрент pb.wtf

Размер: 1.09 GB | Добавлен: 2 года 7 мес. назад | Торрент скачан:7 раз
Скачать  

07-11-2018 09:19 Дмитро Горицвит Скачать торрент  

Дмитро Горицвит
Страна: СССР
Производство: К/ст им. Довженко

Жанр: драма
Год выпуска: 1961
Продолжительность: 01:26:45

Перевод: Не требуется
Cубтитры: нет
Оригинальная аудиодорожка: русский

Режиссер: Николай Макаренко

В ролях:
Анатолий Соловьёв, Майя Коханова, Раиса Недашковская, Евгений Бондаренко, Генрих Осташевский, Леонид Тарабаринов, Екатерина Литвиненко, Василий Дашенко, Полина Куманченко, Алексей Срибный, Эдуард Воробьёв, Дмитрий Гнатюк, Карина Шмаринова, Аркадий Гашинский, Михаил Заднепровский, Владимир Дальский, Александр Гай, Домиан Козачковский, Борис Ивченко, Константин Артеменко, Алексей Давиденко, Иван Дзюба, Николай Талюра, Людмила Марченко...
Об актёрах подробней

Описание:
По мотивам романа М. Стельмаха «Большая родня».
Второй фильм кинотрилогии («Кровь людская — не водица», «Дмитрий Горицвит», «Люди не все знают») рассказывает об одном из первых колхозов Украины, борьбе с кулачеством и любви коммуниста Дмитра Горицвита к Марте — дочери петлюровца, виновного в смерти отца Дмитра.

Источник: DVD5 R5
Качество видео: DVDRip
Формат видео: AVI

Видео: 688х512 (4:3), 25 fps, XviD ~ 1597 kbps avg, 0.181 bit/pixel
Аудио: 48 kHz, Dolby Digital AC3 2.0, 192 kbps

Раздача от:
Общее
Полное имя : Dmitro.Goricvit.1961.DVDRip_[New-team]_by_AVP_Studio.avi
Формат : AVI
Формат/Информация : Audio Video Interleave
Размер файла : 1,09 Гбайт
Продолжительность : 1 ч. 26 м.
Общий поток : 1798 Кбит/сек
Программа кодирования : VirtualDubMod 1.5.10.3 | www.virtualdub-fr.org || (build 2550/release)
Библиотека кодирования : VirtualDubMod build 2550/release

Видео
Идентификатор : 0
Формат : MPEG-4 Visual
Профиль формата : Advanced Simple@L5
Настройки формата : BVOP1 / Custom Matrix
Параметр BVOP формата : 1
Параметр QPel формата : Нет
Параметр GMC формата : Без точки перехода
Параметр матрицы формата : Выборочная
Идентификатор кодека : XVID
Идентификатор кодека/Подсказка : XviD
Продолжительность : 1 ч. 26 м.
Битрейт : 1597 Кбит/сек
Ширина : 688 пикселей
Высота : 512 пикселей
Соотношение сторон : 4:3
Частота кадров : 25,000 кадров/сек
Цветовое пространство : YUV
Субдискретизация насыщенности : 4:2:0
Битовая глубина : 8 бит
Тип развёртки : Прогрессивная
Метод сжатия : С потерями
Бит/(Пиксели*Кадры) : 0.181
Размер потока : 991 Мбайт (89%)
Библиотека кодирования : XviD 73

Аудио
Идентификатор : 1
Формат : AC-3
Формат/Информация : Audio Coding 3
Коммерческое название : Dolby Digital
Идентификатор кодека : 2000
Продолжительность : 1 ч. 26 м.
Вид битрейта : Постоянный
Битрейт : 192 Кбит/сек
Каналы : 2 канала
Channel layout : L R
Частота : 48,0 КГц
Частота кадров : 31,250 кадров/сек (1536 SPF)
Битовая глубина : 16 бит
Метод сжатия : С потерями
Размер потока : 119 Мбайт (11%)
Выравнивание : Разделение по промежуткам
Продолжительность промежутка : 40 мс. (1,00 видеокадр)
Время предзагрузки промежутка : 500 мс
pb.wtf



Скачать Дмитро Горицвит через торрент http://picplus.ru/img/1811/07/95341adb.png Скачать фильм Дмитро Горицвит через торрент бесплантно в хорошем качестве Описание:По мотивам романа М. Стельмаха «Большая родня».Второй фильм кинотрилогии («Кровь людская — не водица», «Дмитрий Горицвит», «Люди ... 10 10 1
Info! Золотая раздача, скачанное не засчитывается.
Торрент: Зарегистрирован [2018-11-07 09:19] · скачан: 7 раз
Статус: √ проверено
Размер: 1.09 GB
Как cкачать? Как скачать Дмитро Горицвит через торрент | UTorrent

% Раздел Тема Автор DL S | L
Кино СССР [ 1.09 GB ] Дмитро Горицвит [1961 СССР DVDRip-AVC от AVP Studio] AVP Studio Скачать
1 | 0

28-11-2019 20:33  

Отключить всю рекламу на сайте

    Дорогой пользователь! Огромная просьба, поблагодарите релизера, оцените раздачу и оставьте свои комментарий, если Вы скачали Дмитро Горицвит через торрент бесплатно! Внесите свою лепту в развитие PiratBit!
    Комментировать посты могут только пользователи прошедшие не сложную регистрацию
    Показать сообщения:    

    Дмитро Горицвит через торрент
    Скачать бесплатно Дмитро Горицвит
    Дмитро Горицвит скачать торрент
    Дмитро Горицвит смотреть онлайн
    Cкачать фильм Дмитро Горицвит бесплатно
    Дмитро Горицвит скачать торрент в хорошем качестве
    Дмитро Горицвит смотреть онлайн бесплатно в хорошем качестве


    Вы не можете начинать темы
    Вы не можете отвечать на сообщения
    Вы не можете редактировать свои сообщения
    Вы не можете удалять свои сообщения
    Вы не можете голосовать в опросах
    Вы не можете прикреплять файлы к сообщениям
    Вы можете скачивать файлы