Ссылка на приватное зеркало всего за 1$. Внимание количество ограничено!!!

iTunes

1+1

iTunes

мы

MV0

1

WEB-DLRip

Джокер

Пифагор

Ведьмак / The Witcher сериал

iTunes

ПШазам

iTunes

Оно 2

iTunes

30
pack

Вам бонус

ВАЖНО

!!Акция!!

Alien_RageХит недели

RePack

Resident Evil 21

ИГРА 18+

pack

RePack

jed

!!Акция!!

Alien_Rage

RePack

fifa19

RePack

Assassins Creed: Odyssey

RePack

NEED FOR SPEED™ PAYBACK

4 сезон

9 сезон

Бесстыжие 9 сезон

Все сериалы

все сериалы на PB.wtf

RePack

FAR CRY 5
  

Война небес / Heaven's War (Дэнни Корралес) [2018 г., Боевик, фантастика, WEB-DL 1080p, Любительский (многоголосый)(MUZOBOZ)] pb.wtf

Война небес через торрент pb.wtf

Размер: 3.87 GB | Добавлен: 1 год 3 мес. назад | Торрент скачан:18 раз
Скачать  

08-11-2018 03:55 Война небес Скачать торрент  

Война небес / Heaven's War
Год выпуска: 2018
Страна: США
Жанр: Боевик, фантастика
Продолжительность: 01:34:28
Перевод: Любительский (многоголосый)(MUZOBOZ)
Субтитры: Отсутствуют

Режиссер: Дэнни Корралес

rating

В ролях: Джейсон Герхардт, Донни Боас, Келли Паттон, Джесси Аллен, Том Костелло мл., Джо Эстевес, Коннер Эванс, Кип Фаррар ...

Описание: Попав под атаку террористов, сенатор Джона Томас оказывается на грани жизни и смерти. Пытаясь выбрать правильный путь в реальном мире, он сталкивается с моральной дилеммой, которая может повлиять на его судьбу в битве между добром и злом.

Доп. информация: Присутствуют вставки текстовой рекламы

Качество: WEB-DL 1080p
Формат: MKV
Видео кодек: H.264
Аудио кодек: AC3
Видео: AVC/H.264, 1920x816, ~5367 Kbps
Аудио#1: AC-3, 2 ch, 384 Kbps
скриншот   скриншот   скриншот   скриншот  

Общее
Полное имя : E:\NNM\Война небес\Heavens War 2018 WEB-DLRip 1080p-LQ.mkv
Формат : Matroska
Версия формата : Version 2
Размер файла : 3,87 Гбайт
Продолжительность : 1 ч. 34 м.
Режим общего битрейта : Переменный
Общий поток : 5868 Кбит/сек
Программа кодирования : libmatroska 1.4.1

Видео
Идентификатор : 1
Формат : AVC
Формат/Информация : Advanced Video Codec
Профиль формата : High@L4.1
Настройки формата : CABAC / 4 Ref Frames
Параметр CABAC формата : Да
Параметр RefFrames формата : 4 кадра
Идентификатор кодека : V_MPEG4/ISO/AVC
Продолжительность : 1 ч. 34 м.
Вид битрейта : Переменный
Битрейт : 5367 Кбит/сек
Максимальный битрейт : 6200 Кбит/сек
Ширина : 1920 пикселей
Высота : 816 пикселей
Соотношение сторон : 2,35:1
Режим частоты кадров : Постоянный
Частота кадров : 23,976 (24000/1001) кадра/сек
Стандарт вещания : Component
Цветовое пространство : YUV
Субдискретизация насыщенности : 4:2:0
Битовая глубина : 8 бит
Тип развёртки : Прогрессивная
Бит/(Пиксели*Кадры) : 0.143
Размер потока : 3,54 Гбайт (91%)
Default : Нет
Forced : Нет
Цветовой диапазон : Limited
Основные цвета : BT.709
Характеристики трансфера : BT.709
Коэффициенты матрицы : BT.709

Аудио
Идентификатор : 2
Формат : AC-3
Формат/Информация : Audio Coding 3
Идентификатор кодека : A_AC3
Продолжительность : 1 ч. 34 м.
Вид битрейта : Постоянный
Битрейт : 384 Кбит/сек
Каналы : 2 канала
Расположение каналов : Front: L R
Частота : 48,0 КГц
Частота кадров : 31,250 кадров/сек (1536 SPF)
Битовая глубина : 16 бит
Метод сжатия : С потерями
Размер потока : 259 Мбайт (7%)
ServiceKind/String : Complete Main
Default : Нет
Forced : Нет

pb.wtf



Скачать Война небес через торрент http://pic1.kartinco.top/images/11/dn8hi.jpg Скачать фильм Война небес через торрент бесплантно в хорошем качестве Описание: Попав под атаку террористов, сенатор Джона Томас оказывается на грани жизни и смерти. Пытаясь выбрать правильный путь в реальном ... 5 10 1
Торрент: Зарегистрирован [2018-11-08 03:55] · скачан: 18 раз
Статус: T временная
Размер: 3.87 GB
Как cкачать? Как скачать Война небес через торрент | qTorrent

28-11-2019 20:33  

Отключить всю рекламу на сайте

    Дорогой пользователь! Огромная просьба, поблагодарите релизера, оцените раздачу и оставьте свои комментарий, если Вы скачали Война небес через торрент бесплатно! Внесите свою лепту в развитие PiratBit!
    Комментировать посты могут только пользователи прошедшие не сложную регистрацию
    Показать сообщения:    

    Война небес через торрент
    Скачать бесплатно Война небес
    Война небес скачать торрент
    Война небес смотреть онлайн
    Cкачать фильм Война небес бесплатно
    Война небес скачать торрент в хорошем качестве
    Война небес смотреть онлайн бесплатно в хорошем качестве


    Вы не можете начинать темы
    Вы не можете отвечать на сообщения
    Вы не можете редактировать свои сообщения
    Вы не можете удалять свои сообщения
    Вы не можете голосовать в опросах
    Вы не можете прикреплять файлы к сообщениям
    Вы можете скачивать файлы