Ссылка на приватное зеркало всего за 1$. Внимание количество ограничено!!!

OK

1+1

iTunes

мы

OK

1

WEB-DLRip

Джокер

Пифагор

Ведьмак / The Witcher сериал

Лицензия

ПШазам

ОК

Оно 2

iTunes

30
pack

Вам бонус

ВАЖНО

!!Акция!!

Alien_RageХит недели

RePack

Resident Evil 21

ИГРА 18+

pack

RePack

jed

RePack

fifa19

RePack

Assassins Creed: Odyssey

RePack

NEED FOR SPEED™ PAYBACK

4 сезон

9 сезон

Бесстыжие 9 сезон

Все сериалы

все сериалы на PB.wtf

RePack

FAR CRY 5
  

Война небес / Heaven's War (Дэнни Корралес) [2018 г., Боевик, фантастика, WEB-DLRip, Любительский (многоголосый) (MUZOBOZ)] pb.wtf

Война небес через торрент pb.wtf

Размер: 1.32 GB | Добавлен: 1 год 2 мес. назад | Торрент скачан:65 раз
Скачать  

08-11-2018 04:04 Война небес Скачать торрент  

Война небес / Heaven's War
Год выпуска: 2018
Страна: США
Жанр: Боевик, фантастика
Продолжительность: 01:34:28
Перевод: Любительский (многоголосый) (MUZOBOZ)
Субтитры: Отсутствуют

Режиссер: Дэнни Корралес

rating

В ролях: Джейсон Герхардт, Донни Боас, Келли Паттон, Джесси Аллен, Том Костелло мл., Джо Эстевес, Коннер Эванс, Кип Фаррар ...

Описание: Попав под атаку террористов, сенатор Джона Томас оказывается на грани жизни и смерти. Пытаясь выбрать правильный путь в реальном мире, он сталкивается с моральной дилеммой, которая может повлиять на его судьбу в битве между добром и злом.

Доп. информация: Присутствуют вставки текстовой рекламы

Качество: WEB-DLRip
Формат: AVI
Видео кодек: XviD
Аудио кодек: AC3
Видео: XviD, 720x304, ~1606 Kbps
Аудио#1: AC-3, 2 ch, 384 Kbps
скриншот   скриншот   скриншот   скриншот  

Общее
Полное имя : E:\NNM\Война небес\Heavens War 2018 WEB-DLRip.avi
Формат : AVI
Формат/Информация : Audio Video Interleave
Профиль формата : OpenDML
Размер файла : 1,32 Гбайт
Продолжительность : 1 ч. 34 м.
Общий поток : 2003 Кбит/сек

Видео
Идентификатор : 0
Формат : MPEG-4 Visual
Профиль формата : Advanced Simple@L5
Настройки формата : BVOP2 / Custom Matrix
Параметр BVOP формата : 2
Параметр QPel формата : Нет
Параметр GMC формата : Без точки перехода
Параметр матрицы формата : Выборочная
Идентификатор кодека : XVID
Идентификатор кодека/Подсказка : XviD
Продолжительность : 1 ч. 34 м.
Битрейт : 1606 Кбит/сек
Ширина : 720 пикселей
Высота : 304 пикселя
Соотношение сторон : 2,35:1
Частота кадров : 23,976 (24000/1001) кадра/сек
Цветовое пространство : YUV
Субдискретизация насыщенности : 4:2:0
Битовая глубина : 8 бит
Тип развёртки : Прогрессивная
Метод сжатия : С потерями
Бит/(Пиксели*Кадры) : 0.306
Размер потока : 1,06 Гбайт (80%)
Библиотека кодирования : XviD 1.2.1 (UTC 2008-12-04)

Аудио
Идентификатор : 1
Формат : AC-3
Формат/Информация : Audio Coding 3
Идентификатор кодека : 2000
Продолжительность : 1 ч. 34 м.
Вид битрейта : Постоянный
Битрейт : 384 Кбит/сек
Каналы : 2 канала
Расположение каналов : Front: L R
Частота : 48,0 КГц
Частота кадров : 31,250 кадров/сек (1536 SPF)
Битовая глубина : 16 бит
Метод сжатия : С потерями
Размер потока : 259 Мбайт (19%)
Выравнивание : Соединение по промежуткам
Продолжительность промежутка : 32 мс. (0,77 видеокадр)
ServiceKind/String : Complete Main

pb.wtf



Скачать Война небес через торрент http://pic1.kartinco.top/images/11/bxhyn.jpg Скачать фильм Война небес через торрент бесплантно в хорошем качестве Описание: Попав под атаку террористов, сенатор Джона Томас оказывается на грани жизни и смерти. Пытаясь выбрать правильный путь в реальном ... 10 10 2
Торрент: Зарегистрирован [2018-11-08 04:04] · скачан: 65 раз
Статус: T временная
Размер: 1.32 GB
Как cкачать? Как скачать Война небес через торрент | qTorrent

28-11-2019 20:33  

Отключить всю рекламу на сайте

08-11-2018 05:09 Война небес Скачать торрент  

это "ассилум" какой то чтоль?pb.wtf



    Дорогой пользователь! Огромная просьба, поблагодарите релизера, оцените раздачу и оставьте свои комментарий, если Вы скачали Война небес через торрент бесплатно! Внесите свою лепту в развитие PiratBit!
    Комментировать посты могут только пользователи прошедшие не сложную регистрацию
    Показать сообщения:    

    Война небес через торрент
    Скачать бесплатно Война небес
    Война небес скачать торрент
    Война небес смотреть онлайн
    Cкачать фильм Война небес бесплатно
    Война небес скачать торрент в хорошем качестве
    Война небес смотреть онлайн бесплатно в хорошем качестве


    Вы не можете начинать темы
    Вы не можете отвечать на сообщения
    Вы не можете редактировать свои сообщения
    Вы не можете удалять свои сообщения
    Вы не можете голосовать в опросах
    Вы не можете прикреплять файлы к сообщениям
    Вы можете скачивать файлы