Ссылка на приватное зеркало всего за 1$. Внимание количество ограничено!!!

iTunes

iTunes

iTunes

1

iTunes

iTunes

iTunes

WEBRip

iTunes

30
pack

$ от Little Big

ВАЖНО

!!Акция!!

Alien_RageХит недели

RePack

Resident Evil 21

ИГРА 18+

pack

RePack

jed

!!Акция!!

Alien_Rage

RePack

fifa19

RePack

Assassins Creed: Odyssey

RePack

NEED FOR SPEED™ PAYBACK

4 сезон

9 сезон

Бесстыжие 9 сезон

Все сериалы

все сериалы на PB.wtf

RePack

FAR CRY 5
  

Алькатрас / Alcatraz (Эндрю Джонс) [2018 г., Боевик, криминал, WEB-DLRip, Любительский (многоголосый)(MUZOBOZ)] pb.wtf

Алькатрас через торрент pb.wtf

Размер: 1.3 GB | Добавлен: 1 год 8 мес. назад | Торрент скачан:170 раз
Скачать  

08-11-2018 04:13 Алькатрас Скачать торрент  

Алькатрас / Alcatraz
Год выпуска: 2018
Страна: США, Великобритания
Жанр: Боевик, криминал
Продолжительность: 01:26:50
Перевод: Любительский (многоголосый)(MUZOBOZ)
Субтитры: Отсутствуют

Режиссер: Эндрю Джонс

rating

В ролях: Гарет Лоуренс, Ли Бэйн, Дерек Нельсон, Харриет Рис, Марк Гомер, Трэвис Бут-Миллард, Патрик О'Доннелл, Эрик Хейден, Николас Энскомб, Райан Майклс

Описание: Молодой парень Клэренс попадает в известную своей строгостью тюрьму-крепость Алькатрас. Там он становится участником одной обособленной группы заключенных, во главе которой стоит жестокий убийца и бандит. Все вместе они решают попытать удачу и сбежать с этого проклятого острова.

Доп. информация: Присутствуют вставки текстовой рекламы

Качество: WEB-DLRip
Формат: AVI
Видео кодек: XviD
Аудио кодек: AC3
Видео: XviD, 720x304, ~1746 Kbps
Аудио#1: AC-3, 2 ch, 384 Kbps
скриншот   скриншот   скриншот   скриншот  

Общее
Полное имя : E:\NNM\Алькатрас\Alcatraz 2018 WEB-DLRip.avi
Формат : AVI
Формат/Информация : Audio Video Interleave
Профиль формата : OpenDML
Размер файла : 1,30 Гбайт
Продолжительность : 1 ч. 26 м.
Общий поток : 2142 Кбит/сек

Видео
Идентификатор : 0
Формат : MPEG-4 Visual
Профиль формата : Advanced Simple@L5
Настройки формата : BVOP2 / Custom Matrix
Параметр BVOP формата : 2
Параметр QPel формата : Нет
Параметр GMC формата : Без точки перехода
Параметр матрицы формата : Выборочная
Идентификатор кодека : XVID
Идентификатор кодека/Подсказка : XviD
Продолжительность : 1 ч. 26 м.
Битрейт : 1746 Кбит/сек
Ширина : 720 пикселей
Высота : 304 пикселя
Соотношение сторон : 2,35:1
Частота кадров : 23,976 (24000/1001) кадра/сек
Цветовое пространство : YUV
Субдискретизация насыщенности : 4:2:0
Битовая глубина : 8 бит
Тип развёртки : Прогрессивная
Метод сжатия : С потерями
Бит/(Пиксели*Кадры) : 0.333
Размер потока : 1,06 Гбайт (81%)
Библиотека кодирования : XviD 1.2.1 (UTC 2008-12-04)

Аудио
Идентификатор : 1
Формат : AC-3
Формат/Информация : Audio Coding 3
Идентификатор кодека : 2000
Продолжительность : 1 ч. 26 м.
Вид битрейта : Постоянный
Битрейт : 384 Кбит/сек
Каналы : 2 канала
Расположение каналов : Front: L R
Частота : 48,0 КГц
Частота кадров : 31,250 кадров/сек (1536 SPF)
Битовая глубина : 16 бит
Метод сжатия : С потерями
Размер потока : 239 Мбайт (18%)
Выравнивание : Соединение по промежуткам
Продолжительность промежутка : 32 мс. (0,77 видеокадр)
ServiceKind/String : Complete Main

pb.wtf



Скачать Алькатрас через торрент http://pic1.kartinco.top/images/11/ou3aj.jpg Скачать фильм Алькатрас через торрент бесплантно в хорошем качестве Описание: Молодой парень Клэренс попадает в известную своей строгостью тюрьму-крепость Алькатрас. Там он становится участником одной ... 10 10 5
Торрент: Зарегистрирован [2018-11-08 04:13] · скачан: 170 раз
Статус: T временная
Размер: 1.3 GB
Как cкачать? Как скачать Алькатрас через торрент | qTorrent

% Раздел Тема Автор DL S | L
Зарубежные сериалы [ 19.25 GB ] Алькатрас / Alcatraz[S01] [2011 WEB-DLRip 720p ] ~Relizer~ Скачать
1 | 0
Информационно-аналитические и общественно-политические передачи [ 1.45 GB ] Алькатрас. В поисках правды / Alcatraz. Search for the Truth [2015 документальный история HDTVRip] [DVO] killermax2013 Скачать
1 | 0
T Фильмы (WEB-DL 720p, 1080p) [ 3.3 GB ] Алькатрас / Alcatraz [2018 WEB-DL 1080p] DVO [HiWay Grope] sokol_ok Скачать
1 | 0
T Фильмы 2019-2020 (Звук TS, Cam, VO, DVO) [ 1.49 GB ] Алькатрас / Alcatraz [2018 WEB-DLRip-AVC] DVO [HiWay Grope] sokol_ok Скачать
1 | 0
T Фильмы (мультфильмы) cо спонсором показа (Новинки AVI/MKV) [ 3.19 GB ] Алькатрас / Alcatraz [2018 WEB-DL 720p] MVO [@MUZOBOZ@] bober100 Скачать
1 | 0
T Фильмы (мультфильмы) cо спонсором показа (Новинки AVI/MKV) [ 3.55 GB ] Алькатрас / Alcatraz [2018 WEB-DL 1080p] MVO [@MUZOBOZ@] bober100 Скачать
1 | 0
Фильмы до 2000 г. [ 1.46 GB ] Любитель птиц из Алькатраса / Birdman of Alcatraz [1962 биографический HDRip] [MVO] killermax2013 Скачать
1 | 0

28-11-2019 20:33  

Отключить всю рекламу на сайте

19-01-2019 18:29 Алькатрас Скачать торрент  

мудак тормозит не посмотришьpb.wtf



    Дорогой пользователь! Огромная просьба, поблагодарите релизера, оцените раздачу и оставьте свои комментарий, если Вы скачали Алькатрас через торрент бесплатно! Внесите свою лепту в развитие PiratBit!
    Комментировать посты могут только пользователи прошедшие не сложную регистрацию
    Показать сообщения:    

    Алькатрас через торрент
    Скачать бесплатно Алькатрас
    Алькатрас скачать торрент
    Алькатрас смотреть онлайн
    Cкачать фильм Алькатрас бесплатно
    Алькатрас скачать торрент в хорошем качестве
    Алькатрас смотреть онлайн бесплатно в хорошем качестве


    Вы не можете начинать темы
    Вы не можете отвечать на сообщения
    Вы не можете редактировать свои сообщения
    Вы не можете удалять свои сообщения
    Вы не можете голосовать в опросах
    Вы не можете прикреплять файлы к сообщениям
    Вы можете скачивать файлы