Marvel's Avengers Deluxe Edition (супер цена) 159р. Внимание количество ограничено!!!

2 сезон

iTunes

iTunes

1

iTunes

iTunes

iTunes

WEBRip

iTunes

30
pack

Новость дня

ВАЖНО

!!Акция!!

Alien_RageХит недели

RePack

Horizon Zero Dawn

ИГРА 18+

pack

RePack

jed

!!Акция!!

Alien_Rage

RePack

fifa19

RePack

Assassins Creed: Odyssey

RePack

NEED FOR SPEED™ PAYBACK

4 сезон

9 сезон

Бесстыжие 9 сезон

Все сериалы

все сериалы на PB.wtf

RePack

FAR CRY 5
  

Мэри возвращается / Mary Goes Round (Молли МакГлинн) [2017, Драма, WEB-DL 720p] MVO ["Синема УС"] pb.wtf

Мэри возвращается через торрент pb.wtf

Размер: 3.28 GB | Добавлен: 1 год 10 мес. назад | Торрент скачан:16 раз
Скачать  

08-11-2018 07:41 Мэри возвращается Скачать торрент  

Мэри возвращается / Mary Goes RoundГод выпуска: 2017
Страна: США
Жанр: Драма
Продолжительность: 01:29:22
Перевод: Любительский (многоголосый) | "Синема УС"
Субтитры: отсутствуют

Режиссер: Молли МакГлинн

rating

В ролях:

Ая Кэш, Кимберли-Сью Мюррэй, Мелани Николлз-Кинг, Сара Дикинс, Аарон Пул, Сара Вайсгласс, Джесс Салгейру, Джон Ралстон, Лесли Сейлер, Ким Робертс

Описание:

Мэри - психотерапевт по борьбе с зависимостью, но при этом сама является алкоголичкой. После ареста за вождение в нетрезвом виде она возвращается в родной город, где узнаёт, что её отец, с которым они не виделись много лет, умирает от рака. Зная о скорой смерти, он хочет, чтобы Мэри позаботилась о своей сводной сестре, которую никогда до этого не встречала.

Качество: WEB-DL 720p
Формат: MKV

Видео: h.264,4 875 kb/s, 1280x542
Аудио#1: Русский, (AC3, 2 ch, 384 Кбит/с)

Общее
Уникальный идентификатор : 187799039542129885524312550203851469385 (0x8D48C785535143C194AF73CD73DAF249)
Полное имя : E:\торреннты\Mary.Goes.Round.2O17.P.WEB-DL.72Op_KOSHARA.mkv
Формат : Matroska
Версия формата : Version 2
Размер файла : 3,28 Гбайт
Продолжительность : 1 ч. 29 м.
Режим общего битрейта : Переменный
Общий поток : 5261 Кбит/сек
Дата кодирования : UTC 2018-11-07 20:28:32
Программа кодирования : mkvmerge v8.3.0 ('Over the Horizon') 64bit
Библиотека кодирования : libebml v1.3.1 + libmatroska v1.4.2

Видео
Идентификатор : 1
Формат : AVC
Формат/Информация : Advanced Video Codec
Профиль формата : High@L4.1
Настройки формата : CABAC / 4 Ref Frames
Параметр CABAC формата : Да
Параметр RefFrames формата : 4 кадра
Идентификатор кодека : V_MPEG4/ISO/AVC
Продолжительность : 1 ч. 29 м.
Вид битрейта : Переменный
Битрейт : 4875 Кбит/сек
Максимальный битрейт : 5500 Кбит/сек
Ширина : 1280 пикселей
Высота : 542 пикселя
Соотношение сторон : 2,35:1
Режим частоты кадров : Постоянный
Частота кадров : 23,976 (24000/1001) кадра/сек
Стандарт вещания : Component
Цветовое пространство : YUV
Субдискретизация насыщенности : 4:2:0
Битовая глубина : 8 бит
Тип развёртки : Прогрессивная
Бит/(Пиксели*Кадры) : 0.287
Размер потока : 2,98 Гбайт (91%)
Default : Да
Forced : Нет
Цветовой диапазон : Limited
Основные цвета : BT.709
Характеристики трансфера : BT.709
Коэффициенты матрицы : BT.709

Аудио
Идентификатор : 2
Формат : AC-3
Формат/Информация : Audio Coding 3
Идентификатор кодека : A_AC3
Продолжительность : 1 ч. 29 м.
Вид битрейта : Постоянный
Битрейт : 384 Кбит/сек
Каналы : 2 канала
Расположение каналов : Front: L R
Частота : 48,0 КГц
Частота кадров : 31,250 кадров/сек (1536 SPF)
Битовая глубина : 16 бит
Метод сжатия : С потерями
Размер потока : 245 Мбайт (7%)
ServiceKind/String : Complete Main
Default : Да
Forced : Нет

pb.wtf



Скачать Мэри возвращается через торрент https://d.radikal.ru/d31/1811/70/68de8d7240c9.jpg Скачать фильм Мэри возвращается через торрент бесплантно в хорошем качестве Описание: Мэри - психотерапевт по борьбе с зависимостью, но при этом сама является алкоголичкой. После ареста за вождение в нетрезвом виде ... 10 10 2
Торрент: Зарегистрирован [2018-11-08 07:41] · скачан: 16 раз
Статус: T временная
Размер: 3.28 GB
Как cкачать? Как скачать Мэри возвращается через торрент | qTorrent

% Раздел Тема Автор DL S | L
T Фильмы (мультфильмы) cо спонсором показа (Новинки AVI/MKV) [ 1.37 GB ] Мэри возвращается / Mary Goes Round [2017 WEB-DLRip] MVO ["Синема УС"] bober100 Скачать
1 | 0

28-11-2019 20:33  

Отключить всю рекламу на сайте

08-11-2018 14:43 Мэри возвращается Скачать торрент  

Ну чё кто смотрел? На психику сильно давит?)pb.wtf



    Дорогой пользователь! Огромная просьба, поблагодарите релизера, оцените раздачу и оставьте свои комментарий, если Вы скачали Мэри возвращается через торрент бесплатно! Внесите свою лепту в развитие PiratBit!
    Комментировать посты могут только пользователи прошедшие не сложную регистрацию
    Показать сообщения:    

    Мэри возвращается через торрент
    Скачать бесплатно Мэри возвращается
    Мэри возвращается скачать торрент
    Мэри возвращается смотреть онлайн
    Cкачать фильм Мэри возвращается бесплатно
    Мэри возвращается скачать торрент в хорошем качестве
    Мэри возвращается смотреть онлайн бесплатно в хорошем качестве


    Вы не можете начинать темы
    Вы не можете отвечать на сообщения
    Вы не можете редактировать свои сообщения
    Вы не можете удалять свои сообщения
    Вы не можете голосовать в опросах
    Вы не можете прикреплять файлы к сообщениям
    Вы можете скачивать файлы