Ссылка на приватное зеркало всего за 1$. Внимание количество ограничено!!!

iTunes

iTunes

iTunes

1

iTunes

iTunes

iTunes

WEBRip

iTunes

30
pack

$ от Little Big

ВАЖНО

!!Акция!!

Alien_RageХит недели

RePack

Resident Evil 21

ИГРА 18+

pack

RePack

jed

!!Акция!!

Alien_Rage

RePack

fifa19

RePack

Assassins Creed: Odyssey

RePack

NEED FOR SPEED™ PAYBACK

4 сезон

9 сезон

Бесстыжие 9 сезон

Все сериалы

все сериалы на PB.wtf

RePack

FAR CRY 5
  

Праздность / Idled (Энди Рейнер) [2018, драма, комедия, WEB-DL 720p] MVO ["Синема УС"] pb.wtf

Праздность через торрент pb.wtf

Размер: 2.83 GB | Добавлен: 1 год 9 мес. назад | Торрент скачан:10 раз
Скачать  

08-11-2018 08:10 Праздность Скачать торрент  

Праздность / IdledГод выпуска: 2018
Страна: США
Жанр: драма, комедия
Продолжительность: 01:20:46
Перевод: Любительский (многоголосый) | "Синема УС"
Субтитры: отсутствуют

Режиссер: Энди Рейнер

rating

В ролях:

Шеннон Мюррэй, Райан Де Квинтал, Джереми Бенжамин, Робин Самора, Венди Альварес, Тристин Хелдт, Мартин Инигес, Аарон Каррильо, Энди Рейнер

Описание:

Герой вспоминает о своей девушке, пока едет временно пожить к брату после их расставания. Они вместе взрослели, проходили различные стадии в своих дружеских и любовных отношениях. Молодой человек пытается справиться с ситуацией и понять, почему всё таки у них не сложилось.

Качество: WEB-DL 720p
Формат: MKV

Видео: h.264, 4 868 kb/s, 1280x720
Аудио#1: Русский, (AC3, 2 ch, 384 Кбит/с)
скриншот  скриншот  скриншот  

Общее
Уникальный идентификатор : 219396595308517407033364205431274066589 (0xA50E3F4C70942583B0B5C06E859FD29D)
Полное имя : E:\торреннты\Idled.2018.P.WEB-DL.72Op_KOSHARA.mkv
Формат : Matroska
Версия формата : Version 2
Размер файла : 2,83 Гбайт
Продолжительность : 1 ч. 17 м.
Режим общего битрейта : Переменный
Общий поток : 5254 Кбит/сек
Дата кодирования : UTC 2018-11-07 19:20:10
Программа кодирования : mkvmerge v8.3.0 ('Over the Horizon') 64bit
Библиотека кодирования : libebml v1.3.1 + libmatroska v1.4.2

Видео
Идентификатор : 1
Формат : AVC
Формат/Информация : Advanced Video Codec
Профиль формата : High@L4.1
Настройки формата : CABAC / 4 Ref Frames
Параметр CABAC формата : Да
Параметр RefFrames формата : 4 кадра
Идентификатор кодека : V_MPEG4/ISO/AVC
Продолжительность : 1 ч. 17 м.
Вид битрейта : Переменный
Битрейт : 4868 Кбит/сек
Максимальный битрейт : 5500 Кбит/сек
Ширина : 1280 пикселей
Высота : 720 пикселей
Соотношение сторон : 16:9
Режим частоты кадров : Постоянный
Частота кадров : 23,976 (24000/1001) кадра/сек
Стандарт вещания : Component
Цветовое пространство : YUV
Субдискретизация насыщенности : 4:2:0
Битовая глубина : 8 бит
Тип развёртки : Прогрессивная
Бит/(Пиксели*Кадры) : 0.216
Размер потока : 2,56 Гбайт (91%)
Default : Да
Forced : Нет
Цветовой диапазон : Limited
Основные цвета : BT.709
Характеристики трансфера : BT.709
Коэффициенты матрицы : BT.709

Аудио
Идентификатор : 2
Формат : AC-3
Формат/Информация : Audio Coding 3
Идентификатор кодека : A_AC3
Продолжительность : 1 ч. 17 м.
Вид битрейта : Постоянный
Битрейт : 384 Кбит/сек
Каналы : 2 канала
Расположение каналов : Front: L R
Частота : 48,0 КГц
Частота кадров : 31,250 кадров/сек (1536 SPF)
Битовая глубина : 16 бит
Метод сжатия : С потерями
Размер потока : 212 Мбайт (7%)
ServiceKind/String : Complete Main
Default : Да
Forced : Нет

pb.wtf



Скачать Праздность через торрент https://c.radikal.ru/c13/1811/6c/7ecebf4bbeff.jpg Скачать фильм Праздность через торрент бесплантно в хорошем качестве Описание: Герой вспоминает о своей девушке, пока едет временно пожить к брату после их расставания. Они вместе взрослели, проходили ... 10 10 3
Info! Золотая раздача, скачанное не засчитывается.
Торрент: Зарегистрирован [2018-11-08 08:10] · скачан: 10 раз
Статус: T временная
Размер: 2.83 GB
Как cкачать? Как скачать Праздность через торрент | qTorrent

% Раздел Тема Автор DL S | L
T Фильмы (мультфильмы) cо спонсором показа (Новинки AVI/MKV) [ 1.37 GB ] Праздность / Idled [2018 WEB-DLRip] MVO ["Синема УС"] bober100 Скачать
1 | 0

28-11-2019 20:33  

Отключить всю рекламу на сайте

    Дорогой пользователь! Огромная просьба, поблагодарите релизера, оцените раздачу и оставьте свои комментарий, если Вы скачали Праздность через торрент бесплатно! Внесите свою лепту в развитие PiratBit!
    Комментировать посты могут только пользователи прошедшие не сложную регистрацию
    Показать сообщения:    

    Праздность через торрент
    Скачать бесплатно Праздность
    Праздность скачать торрент
    Праздность смотреть онлайн
    Cкачать фильм Праздность бесплатно
    Праздность скачать торрент в хорошем качестве
    Праздность смотреть онлайн бесплатно в хорошем качестве


    Вы не можете начинать темы
    Вы не можете отвечать на сообщения
    Вы не можете редактировать свои сообщения
    Вы не можете удалять свои сообщения
    Вы не можете голосовать в опросах
    Вы не можете прикреплять файлы к сообщениям
    Вы можете скачивать файлы