Ссылка на приватное зеркало всего за 1$. Внимание количество ограничено!!!

OK

1+1

iTunes

мы

OK

1

WEB-DLRip

Джокер

Пифагор

Ведьмак / The Witcher сериал

iTunes

ПШазам

ОК

Оно 2

iTunes

30
pack

Вам бонус

ВАЖНО

!!Акция!!

Alien_RageХит недели

RePack

Resident Evil 21

ИГРА 18+

pack

RePack

jed

RePack

fifa19

RePack

Assassins Creed: Odyssey

RePack

NEED FOR SPEED™ PAYBACK

4 сезон

9 сезон

Бесстыжие 9 сезон

Все сериалы

все сериалы на PB.wtf

RePack

FAR CRY 5
  

Умрите в один день / Die in One Day (Эрос Д'Атона) [2018, ужасы, триллер, WEB-DL 720p] MVO ["Синема УС"] pb.wtf

Умрите в один день через торрент pb.wtf

Размер: 2.95 GB | Добавлен: 1 год 2 мес. назад | Торрент скачан:36 раз
Скачать  

08-11-2018 08:28 Умрите в один день Скачать торрент  

Умрите в один день / Die in One DayГод выпуска: 2018
Страна: Италия
Жанр: ужасы, триллер
Продолжительность: 01:20:48
Перевод: Любительский (многоголосый) | "Синема УС"
Субтитры: отсутствуют

Режиссер: Эрос Д'Атона

rating

В ролях:

Катерина Корчинская, Дэвид Уайт, Мирко Д'Антана, Синьзия Сузино, Бьяджо Сампьетро, Даниэла Ладизи, Лиза Мари Пиччиоло, Дарио Грасси, Винченцо Интермит, Джузеппе Лев

Описание:

После неудачного брака, Ричард ищет свою дочь Минди. Он встречает Сашу, начинающую актрису, которая обещает помочь. Но надежда на быстрый заработок превращается в кровавую игру.

Качество: WEB-DL 720p
Формат: MKV

Видео: h.264, 4 835 kb/s, 1280x544
Аудио#1: Русский, (AC3, 2 ch, 384 Кбит/с)
скриншот  скриншот  скриншот  

Общее
Уникальный идентификатор : 251172056132840529324725706008371394541 (0xBCF5FA7913267B04BCEE40CBD387F7ED)
Полное имя : E:\торреннты\Die.In.One.Day.2018.P.WEB-DL.72Op_KOSHARA.mkv
Формат : Matroska
Версия формата : Version 2
Размер файла : 2,95 Гбайт
Продолжительность : 1 ч. 20 м.
Режим общего битрейта : Переменный
Общий поток : 5221 Кбит/сек
Дата кодирования : UTC 2018-11-07 19:16:58
Программа кодирования : mkvmerge v8.3.0 ('Over the Horizon') 64bit
Библиотека кодирования : libebml v1.3.1 + libmatroska v1.4.2

Видео
Идентификатор : 1
Формат : AVC
Формат/Информация : Advanced Video Codec
Профиль формата : High@L4.1
Настройки формата : CABAC / 4 Ref Frames
Параметр CABAC формата : Да
Параметр RefFrames формата : 4 кадра
Идентификатор кодека : V_MPEG4/ISO/AVC
Продолжительность : 1 ч. 20 м.
Вид битрейта : Переменный
Битрейт : 4835 Кбит/сек
Максимальный битрейт : 5500 Кбит/сек
Ширина : 1280 пикселей
Высота : 544 пикселя
Соотношение сторон : 2,35:1
Режим частоты кадров : Постоянный
Частота кадров : 23,976 (24000/1001) кадра/сек
Стандарт вещания : Component
Цветовое пространство : YUV
Субдискретизация насыщенности : 4:2:0
Битовая глубина : 8 бит
Тип развёртки : Прогрессивная
Бит/(Пиксели*Кадры) : 0.283
Размер потока : 2,67 Гбайт (91%)
Default : Да
Forced : Нет
Цветовой диапазон : Limited
Основные цвета : BT.709
Характеристики трансфера : BT.709
Коэффициенты матрицы : BT.709

Аудио
Идентификатор : 2
Формат : AC-3
Формат/Информация : Audio Coding 3
Идентификатор кодека : A_AC3
Продолжительность : 1 ч. 20 м.
Вид битрейта : Постоянный
Битрейт : 384 Кбит/сек
Каналы : 2 канала
Расположение каналов : Front: L R
Частота : 48,0 КГц
Частота кадров : 31,250 кадров/сек (1536 SPF)
Битовая глубина : 16 бит
Метод сжатия : С потерями
Размер потока : 222 Мбайт (7%)
ServiceKind/String : Complete Main
Default : Да
Forced : Нет

pb.wtf



Скачать Умрите в один день через торрент https://a.radikal.ru/a10/1811/6a/a53acd9d401c.jpg Скачать фильм Умрите в один день через торрент бесплантно в хорошем качестве Описание: После неудачного брака, Ричард ищет свою дочь Минди. Он встречает Сашу, начинающую актрису, которая обещает помочь. Но надежда на ... 10 10 2
Торрент: Зарегистрирован [2018-11-08 08:28] · скачан: 36 раз
Статус: T временная
Размер: 2.95 GB
Как cкачать? Как скачать Умрите в один день через торрент | qTorrent

% Раздел Тема Автор DL S | L
T Фильмы (мультфильмы) cо спонсором показа (Новинки AVI/MKV) [ 1.37 GB ] Умрите в один день / Die in One Day [2018 WEB-DLRip] MVO ["Синема УС"] bober100 Скачать
1 | 0

28-11-2019 20:33  

Отключить всю рекламу на сайте

08-11-2018 08:46 Умрите в один день Скачать торрент  

Спасибо конечно за раздачу,давно назрел вопрос...где такой трэш берёте в плане фильмов... pb.wtf



08-11-2018 12:49 Умрите в один день Скачать торрент  

такое впечатление, что они там упоротые уже не одно поколение. Деньги есть - ума не надо...pb.wtf



09-11-2018 08:19 Умрите в один день Скачать торрент  

Что всё так плохо?pb.wtf



    Дорогой пользователь! Огромная просьба, поблагодарите релизера, оцените раздачу и оставьте свои комментарий, если Вы скачали Умрите в один день через торрент бесплатно! Внесите свою лепту в развитие PiratBit!
    Комментировать посты могут только пользователи прошедшие не сложную регистрацию
    Показать сообщения:    

    Умрите в один день через торрент
    Скачать бесплатно Умрите в один день
    Умрите в один день скачать торрент
    Умрите в один день смотреть онлайн
    Cкачать фильм Умрите в один день бесплатно
    Умрите в один день скачать торрент в хорошем качестве
    Умрите в один день смотреть онлайн бесплатно в хорошем качестве


    Вы не можете начинать темы
    Вы не можете отвечать на сообщения
    Вы не можете редактировать свои сообщения
    Вы не можете удалять свои сообщения
    Вы не можете голосовать в опросах
    Вы не можете прикреплять файлы к сообщениям
    Вы можете скачивать файлы