Ссылка на приватное зеркало всего за 1$. Внимание количество ограничено!!!

iTunes

iTunes

iTunes

1

iTunes

iTunes

iTunes

WEBRip

iTunes

30
pack

$ от Little Big

ВАЖНО

!!Акция!!

Alien_RageХит недели

RePack

Resident Evil 21

ИГРА 18+

pack

RePack

jed

!!Акция!!

Alien_Rage

RePack

fifa19

RePack

Assassins Creed: Odyssey

RePack

NEED FOR SPEED™ PAYBACK

4 сезон

9 сезон

Бесстыжие 9 сезон

Все сериалы

все сериалы на PB.wtf

RePack

FAR CRY 5
  

Война небес / Heavens War (Дэнни Корралес) [2018, Боевик, фантастика, WEB-DL 720p] MVO [@MUZOBOZ@] pb.wtf

Война небес через торрент pb.wtf

Размер: 3.6 GB | Добавлен: 1 год 8 мес. назад | Торрент скачан:139 раз
Скачать  

08-11-2018 08:45 Война небес Скачать торрент  

Война небес / Heavens WarГод выпуска: 2018
Страна: США
Жанр: Боевик, фантастика
Продолжительность: 01:37:28
Перевод: Любительский (многоголосый) | @MUZOBOZ@
Субтитры: отсутствуют

Режиссер: Дэнни Корралес

rating

В ролях:

Джейсон Герхардт, Донни Боас, Келли Паттон

Описание:

Попав под атаку террористов, сенатор Джона Томас оказывается на грани жизни и смерти. Пытаясь выбрать правильный путь в реальном мире, он сталкивается с моральной дилеммой, которая может повлиять на его судьбу в битве между добром и злом.

Качество: WEB-DL 720p
Формат: MKV

Видео: h.264, 4 900 kb/s, 1280x544
Аудио#1: Русский, (AC3, 2 ch, 384 Кбит/с)
скриншот  скриншот  скриншот  

Общее
Уникальный идентификатор : 175189460377703771440411225636419615876 (0x83CC4344C79F6072A6D464BA94133C84)
Полное имя : E:\торреннты\Heavens.War.2O18.P.WEB-DL.72Op_KOSHARA.mkv
Формат : Matroska
Версия формата : Version 2
Размер файла : 3,60 Гбайт
Продолжительность : 1 ч. 37 м.
Режим общего битрейта : Переменный
Общий поток : 5286 Кбит/сек
Дата кодирования : UTC 2018-11-07 18:16:09
Программа кодирования : mkvmerge v8.3.0 ('Over the Horizon') 64bit
Библиотека кодирования : libebml v1.3.1 + libmatroska v1.4.2

Видео
Идентификатор : 1
Формат : AVC
Формат/Информация : Advanced Video Codec
Профиль формата : High@L4.1
Настройки формата : CABAC / 4 Ref Frames
Параметр CABAC формата : Да
Параметр RefFrames формата : 4 кадра
Идентификатор кодека : V_MPEG4/ISO/AVC
Продолжительность : 1 ч. 37 м.
Вид битрейта : Переменный
Битрейт : 4900 Кбит/сек
Максимальный битрейт : 5500 Кбит/сек
Ширина : 1280 пикселей
Высота : 544 пикселя
Соотношение сторон : 2,35:1
Режим частоты кадров : Постоянный
Частота кадров : 23,976 (24000/1001) кадра/сек
Стандарт вещания : Component
Цветовое пространство : YUV
Субдискретизация насыщенности : 4:2:0
Битовая глубина : 8 бит
Тип развёртки : Прогрессивная
Бит/(Пиксели*Кадры) : 0.287
Размер потока : 3,27 Гбайт (91%)
Default : Да
Forced : Нет
Цветовой диапазон : Limited
Основные цвета : BT.709
Характеристики трансфера : BT.709
Коэффициенты матрицы : BT.709

Аудио
Идентификатор : 2
Формат : AC-3
Формат/Информация : Audio Coding 3
Идентификатор кодека : A_AC3
Продолжительность : 1 ч. 37 м.
Вид битрейта : Постоянный
Битрейт : 384 Кбит/сек
Каналы : 2 канала
Расположение каналов : Front: L R
Частота : 48,0 КГц
Частота кадров : 31,250 кадров/сек (1536 SPF)
Битовая глубина : 16 бит
Метод сжатия : С потерями
Размер потока : 268 Мбайт (7%)
ServiceKind/String : Complete Main
Default : Да
Forced : Нет

pb.wtf



Скачать Война небес через торрент http://pic1.kartinco.top/images/11/dn8hi.jpg Скачать фильм Война небес через торрент бесплантно в хорошем качестве Описание: Попав под атаку террористов, сенатор Джона Томас оказывается на грани жизни и смерти. Пытаясь выбрать правильный путь в реальном ... 8.5 10 6
Торрент: Зарегистрирован [2018-11-08 08:45] · скачан: 139 раз
Статус: T временная
Размер: 3.6 GB
Как cкачать? Как скачать Война небес через торрент | qTorrent

28-11-2019 20:33  

Отключить всю рекламу на сайте

    Дорогой пользователь! Огромная просьба, поблагодарите релизера, оцените раздачу и оставьте свои комментарий, если Вы скачали Война небес через торрент бесплатно! Внесите свою лепту в развитие PiratBit!
    Комментировать посты могут только пользователи прошедшие не сложную регистрацию
    Показать сообщения:    

    Война небес через торрент
    Скачать бесплатно Война небес
    Война небес скачать торрент
    Война небес смотреть онлайн
    Cкачать фильм Война небес бесплатно
    Война небес скачать торрент в хорошем качестве
    Война небес смотреть онлайн бесплатно в хорошем качестве


    Вы не можете начинать темы
    Вы не можете отвечать на сообщения
    Вы не можете редактировать свои сообщения
    Вы не можете удалять свои сообщения
    Вы не можете голосовать в опросах
    Вы не можете прикреплять файлы к сообщениям
    Вы можете скачивать файлы