Ссылка на приватное зеркало всего за 1$. Внимание количество ограничено!!!

OK

1+1

iTunes

мы

OK

1

WEB-DLRip

Джокер

Пифагор

Ведьмак / The Witcher сериал

iTunes

ПШазам

ОК

Оно 2

iTunes

30
pack

Вам бонус

ВАЖНО

!!Акция!!

Alien_RageХит недели

RePack

Resident Evil 21

ИГРА 18+

pack

RePack

jed

RePack

fifa19

RePack

Assassins Creed: Odyssey

RePack

NEED FOR SPEED™ PAYBACK

4 сезон

9 сезон

Бесстыжие 9 сезон

Все сериалы

все сериалы на PB.wtf

RePack

FAR CRY 5
  

25-й пассажир / Seat 25 (Николас Эгнью) [2017, Фантастика, драма, WEB-DL 720p] MVO ["Синема УС"] pb.wtf

25-й пассажир через торрент pb.wtf

Размер: 3.09 GB | Добавлен: 1 год 2 мес. назад | Торрент скачан:81 раз
Скачать  

08-11-2018 10:09 25-й пассажир Скачать торрент  

25-й пассажир / Seat 25Год выпуска: 2017
Страна: Великобритания
Жанр: Фантастика, драма
Продолжительность: 01:25:46
Перевод: Любительский (многоголосый) | "Синема УС"
Субтитры: отсутствуют

Режиссер: Николас Эгнью

rating

В ролях:

Кейт Эшфилд, Николас Бэнкс, Даниэль Бреннан, Мадлен Кук, Ханна Дикинсон, Стейси Эванс, Клер Феттараппа, Саманта Фрост, Элли Кауфман, Стивен Ллойд

Описание:

Фэй Бэнкс и не надеялась выиграть, когда подала заявку на участие в первом пилотируемом полете на Марс. Но когда опасное путешествие в один конец становится реальностью, ее жизнь на Земле начинает трещать по швам. Время подходит к концу, и Фэй должна решить, бросить ли ей мужа, семью и друзей, или что-то по прежнему держит ее на родной планете?

Качество: WEB-DL 720p
Формат: MKV

Видео: h.264, 4 773 kb/s, 1280x534
Аудио#1: Русский, (AC3, 2 ch, 384 Кбит/с)
скриншот  скриншот  скриншот  

Общее
Уникальный идентификатор : 179207270712018980585900477772185298277 (0x86D2109CBCB41DC9AD08B2351D416565)
Полное имя : E:\торреннты\Seat.25.2O17.P.WEB-DL.72Op_KOSHARA.mkv
Формат : Matroska
Версия формата : Version 2
Размер файла : 3,09 Гбайт
Продолжительность : 1 ч. 25 м.
Режим общего битрейта : Переменный
Общий поток : 5159 Кбит/сек
Дата кодирования : UTC 2018-11-07 18:10:03
Программа кодирования : mkvmerge v8.3.0 ('Over the Horizon') 64bit
Библиотека кодирования : libebml v1.3.1 + libmatroska v1.4.2

Видео
Идентификатор : 1
Формат : AVC
Формат/Информация : Advanced Video Codec
Профиль формата : High@L4.1
Настройки формата : CABAC / 4 Ref Frames
Параметр CABAC формата : Да
Параметр RefFrames формата : 4 кадра
Идентификатор кодека : V_MPEG4/ISO/AVC
Продолжительность : 1 ч. 25 м.
Вид битрейта : Переменный
Битрейт : 4773 Кбит/сек
Максимальный битрейт : 5500 Кбит/сек
Ширина : 1280 пикселей
Высота : 534 пикселя
Соотношение сторон : 2,40:1
Режим частоты кадров : Постоянный
Частота кадров : 23,976 (24000/1001) кадра/сек
Стандарт вещания : Component
Цветовое пространство : YUV
Субдискретизация насыщенности : 4:2:0
Битовая глубина : 8 бит
Тип развёртки : Прогрессивная
Бит/(Пиксели*Кадры) : 0.285
Размер потока : 2,80 Гбайт (91%)
Default : Да
Forced : Нет
Цветовой диапазон : Limited
Основные цвета : BT.709
Характеристики трансфера : BT.709
Коэффициенты матрицы : BT.709

Аудио
Идентификатор : 2
Формат : AC-3
Формат/Информация : Audio Coding 3
Идентификатор кодека : A_AC3
Продолжительность : 1 ч. 25 м.
Вид битрейта : Постоянный
Битрейт : 384 Кбит/сек
Каналы : 2 канала
Расположение каналов : Front: L R
Частота : 48,0 КГц
Частота кадров : 31,250 кадров/сек (1536 SPF)
Битовая глубина : 16 бит
Метод сжатия : С потерями
Размер потока : 236 Мбайт (7%)
ServiceKind/String : Complete Main
Default : Да
Forced : Нет

pb.wtf



Скачать 25-й пассажир через торрент https://a.radikal.ru/a10/1811/ba/33e545116dcb.jpg Скачать фильм 25-й пассажир через торрент бесплантно в хорошем качестве Описание: Фэй Бэнкс и не надеялась выиграть, когда подала заявку на участие в первом пилотируемом полете на Марс. Но когда опасное ... 7.8 10 4
Info! Золотая раздача, скачанное не засчитывается.
Торрент: Зарегистрирован [2018-11-08 10:09] · скачан: 81 раз
Статус: T временная
Размер: 3.09 GB
Как cкачать? Как скачать 25-й пассажир через торрент | qTorrent

% Раздел Тема Автор DL S | L
T Фильмы (мультфильмы) cо спонсором показа (Новинки AVI/MKV) [ 1.37 GB ] 25-й пассажир / Seat 25 [2017 WEB-DLRip] MVO ["Синема УС"] bober100 Скачать
1 | 0

28-11-2019 20:33  

Отключить всю рекламу на сайте

    Дорогой пользователь! Огромная просьба, поблагодарите релизера, оцените раздачу и оставьте свои комментарий, если Вы скачали 25-й пассажир через торрент бесплатно! Внесите свою лепту в развитие PiratBit!
    Комментировать посты могут только пользователи прошедшие не сложную регистрацию
    Показать сообщения:    

    25-й пассажир через торрент
    Скачать бесплатно 25-й пассажир
    25-й пассажир скачать торрент
    25-й пассажир смотреть онлайн
    Cкачать фильм 25-й пассажир бесплатно
    25-й пассажир скачать торрент в хорошем качестве
    25-й пассажир смотреть онлайн бесплатно в хорошем качестве


    Вы не можете начинать темы
    Вы не можете отвечать на сообщения
    Вы не можете редактировать свои сообщения
    Вы не можете удалять свои сообщения
    Вы не можете голосовать в опросах
    Вы не можете прикреплять файлы к сообщениям
    Вы можете скачивать файлы