Ссылка на приватное зеркало всего за 1$. Внимание количество ограничено!!!

OK

1+1

iTunes

мы

OK

1

WEB-DLRip

Джокер

Пифагор

Ведьмак / The Witcher сериал

Лицензия

ПШазам

ОК

Оно 2

iTunes

30
pack

Вам бонус

ВАЖНО

!!Акция!!

Alien_RageХит недели

RePack

Resident Evil 21

ИГРА 18+

pack

RePack

jed

!!Акция!!

Alien_Rage

RePack

fifa19

RePack

Assassins Creed: Odyssey

RePack

NEED FOR SPEED™ PAYBACK

4 сезон

9 сезон

Бесстыжие 9 сезон

Все сериалы

все сериалы на PB.wtf

RePack

FAR CRY 5
  

Алькатрас / Alcatraz (Эндрю Джонс) [2018, Боевик, криминал, WEB-DL 1080p] MVO [@MUZOBOZ@] pb.wtf

Алькатрас через торрент pb.wtf

Раздают: 1 [ 0 KB/s ]
Размер: 3.55 GB | Добавлен: 1 год 2 мес. назад | Торрент скачан:219 раз
Скачать  

08-11-2018 10:20 Алькатрас Скачать торрент  

Алькатрас / AlcatrazГод выпуска: 2018
Страна: США, Великобритания
Жанр: Боевик, криминал
Продолжительность: 01:29:49
Перевод: Любительский (многоголосый) | @MUZOBOZ@
Субтитры: отсутствуют

Режиссер: Эндрю Джонс

rating

В ролях:

Гарет Лоуренс, Ли Бэйн, Дерек Нельсон, Харриет Рис, Марк Гомер, Трэвис Бут-Миллард, Патрик О'Доннелл, Эрик Хейден, Николас Энскомб, Райан Майклс

Описание:

Молодой парень Клэренс попадает в известную своей строгостью тюрьму-крепость Алькатрас. Там он становится участником одной обособленной группы заключенных, во главе которой стоит жестокий убийца и бандит. Все вместе они решают попытать удачу и сбежать с этого проклятого острова.

Качество: WEB-DL 1080p
Формат: MKV

Видео: h.264, 5 273 kb/s, 1920x800
Аудио#1: Русский, (AC3, 2 ch, 384 Кбит/с)
скриншот  скриншот  скриншот  

Общее
Уникальный идентификатор : 238905137196061991337099584029174561779 (0xB3BB74ACA59FACAD823F0B7501447BF3)
Полное имя : E:\торреннты\Alcatraz.2O18.P.WEB-DL.1O8Op_KOSHARA.mkv
Формат : Matroska
Версия формата : Version 2
Размер файла : 3,55 Гбайт
Продолжительность : 1 ч. 29 м.
Режим общего битрейта : Переменный
Общий поток : 5658 Кбит/сек
Дата кодирования : UTC 2018-11-07 14:23:46
Программа кодирования : mkvmerge v8.3.0 ('Over the Horizon') 64bit
Библиотека кодирования : libebml v1.3.1 + libmatroska v1.4.2

Видео
Идентификатор : 2
Формат : AVC
Формат/Информация : Advanced Video Codec
Профиль формата : High@L4.1
Настройки формата : CABAC / 4 Ref Frames
Параметр CABAC формата : Да
Параметр RefFrames формата : 4 кадра
Идентификатор кодека : V_MPEG4/ISO/AVC
Продолжительность : 1 ч. 29 м.
Вид битрейта : Переменный
Битрейт : 5272 Кбит/сек
Максимальный битрейт : 6200 Кбит/сек
Ширина : 1920 пикселей
Высота : 800 пикселей
Соотношение сторон : 2,40:1
Режим частоты кадров : Постоянный
Частота кадров : 23,976 (24000/1001) кадра/сек
Стандарт вещания : Component
Цветовое пространство : YUV
Субдискретизация насыщенности : 4:2:0
Битовая глубина : 8 бит
Тип развёртки : Прогрессивная
Бит/(Пиксели*Кадры) : 0.140
Размер потока : 3,24 Гбайт (91%)
Default : Да
Forced : Нет
Цветовой диапазон : Limited
Основные цвета : BT.709
Характеристики трансфера : BT.709
Коэффициенты матрицы : BT.709

Аудио
Идентификатор : 1
Формат : AC-3
Формат/Информация : Audio Coding 3
Идентификатор кодека : A_AC3
Продолжительность : 1 ч. 29 м.
Вид битрейта : Постоянный
Битрейт : 384 Кбит/сек
Каналы : 2 канала
Расположение каналов : Front: L R
Частота : 48,0 КГц
Частота кадров : 31,250 кадров/сек (1536 SPF)
Битовая глубина : 16 бит
Метод сжатия : С потерями
Размер потока : 247 Мбайт (7%)
ServiceKind/String : Complete Main
Default : Да
Forced : Нет

pb.wtf



Скачать Алькатрас через торрент http://pic1.kartinco.top/images/11/ou3aj.jpg Скачать фильм Алькатрас через торрент бесплантно в хорошем качестве Описание: Молодой парень Клэренс попадает в известную своей строгостью тюрьму-крепость Алькатрас. Там он становится участником одной ... 9 10 7
Торрент: Зарегистрирован [2018-11-08 10:20] · скачан: 219 раз
Статус: T временная
Размер: 3.55 GB
Как cкачать? Как скачать Алькатрас через торрент | qTorrent

% Раздел Тема Автор DL S | L
Информационно-аналитические и общественно-политические передачи [ 1.45 GB ] Алькатрас. В поисках правды / Alcatraz. Search for the Truth [2015 документальный история HDTVRip] [DVO] killermax2013 Скачать
1 | 0
T Фильмы (мультфильмы) cо спонсором показа (Новинки AVI/MKV) [ 1.3 GB ] Алькатрас / Alcatraz [2018 WEB-DLRip Любительский ] oleg8 Скачать
1 | 0
T Фильмы (WEB-DL 720p, 1080p) [ 3.3 GB ] Алькатрас / Alcatraz [2018 WEB-DL 1080p] DVO [HiWay Grope] sokol_ok Скачать
1 | 0
T Фильмы 2019-2020 (Звук TS, Cam, VO, DVO) [ 1.49 GB ] Алькатрас / Alcatraz [2018 WEB-DLRip-AVC] DVO [HiWay Grope] sokol_ok Скачать
1 | 0
T Фильмы (мультфильмы) cо спонсором показа (Новинки AVI/MKV) [ 3.19 GB ] Алькатрас / Alcatraz [2018 WEB-DL 720p] MVO [@MUZOBOZ@] bober100 Скачать
1 | 0
Фильмы до 2000 г. [ 1.46 GB ] Любитель птиц из Алькатраса / Birdman of Alcatraz [1962 биографический HDRip] [MVO] killermax2013 Скачать
1 | 0
Зарубежные сериалы [ 6.39 GB ] Алькатрас / Alcatraz [2011 WEB-DLRip] Wiy777 Скачать
1 | 0

28-11-2019 20:33  

Отключить всю рекламу на сайте

    Дорогой пользователь! Огромная просьба, поблагодарите релизера, оцените раздачу и оставьте свои комментарий, если Вы скачали Алькатрас через торрент бесплатно! Внесите свою лепту в развитие PiratBit!
    Комментировать посты могут только пользователи прошедшие не сложную регистрацию
    Показать сообщения:    

    Алькатрас через торрент
    Скачать бесплатно Алькатрас
    Алькатрас скачать торрент
    Алькатрас смотреть онлайн
    Cкачать фильм Алькатрас бесплатно
    Алькатрас скачать торрент в хорошем качестве
    Алькатрас смотреть онлайн бесплатно в хорошем качестве


    Вы не можете начинать темы
    Вы не можете отвечать на сообщения
    Вы не можете редактировать свои сообщения
    Вы не можете удалять свои сообщения
    Вы не можете голосовать в опросах
    Вы не можете прикреплять файлы к сообщениям
    Вы можете скачивать файлы