Ссылка на приватное зеркало всего за 1$. Внимание количество ограничено!!!

OK

1+1

iTunes

мы

OK

1

WEB-DLRip

Джокер

Пифагор

Ведьмак / The Witcher сериал

Лицензия

ПШазам

ОК

Оно 2

iTunes

30
pack

Вам бонус

ВАЖНО

!!Акция!!

Alien_RageХит недели

RePack

Resident Evil 21

ИГРА 18+

pack

RePack

jed

RePack

fifa19

RePack

Assassins Creed: Odyssey

RePack

NEED FOR SPEED™ PAYBACK

4 сезон

9 сезон

Бесстыжие 9 сезон

Все сериалы

все сериалы на PB.wtf

RePack

FAR CRY 5
  

Одни в бою / Alone We Fight (Джастин Ли) [2018, Военный, WEB-DL 720p] MVO [@MUZOBOZ@] pb.wtf

Одни в бою через торрент pb.wtf

Размер: 3.44 GB | Добавлен: 1 год 2 мес. назад | Торрент скачан:42 раза
Скачать  

08-11-2018 10:32 Одни в бою Скачать торрент  

Одни в бою / Alone We FightГод выпуска: 2018
Страна: США
Жанр: Военный
Продолжительность: 01:34:22
Перевод: Любительский (многоголосый) | @MUZOBOZ@
Субтитры: отсутствуют

Режиссер: Джастин Ли

rating

В ролях:

Корбин Бернсен, Джонни Месснер, Эйдан Бристоу, Питер «Драго» Тиманн, Филип Натаниэль, Лара Томас Дьюси, Кейт Конвей, Адам Эллиотт Дэвис, Мэтью, Джеймс Маккарти, Эндрю Гарреттон

Описание:

В суровых обстоятельствах небольшая, но весьма решительная группа американских солдат отправляется на полную опасностей территорию врага с миссией остановить приближающийся немецкий отряд от прорыва линии обороны союзников.

Качество: WEB-DL 720p
Формат: MKV

Видео: h.264, 4 832 kb/s, 1280x640
Аудио#1: Русский, (AC3, 2 ch, 384 Кбит/с)
скриншот  скриншот  скриншот  

Общее
Уникальный идентификатор : 229937419754581028490766724322631452977 (0xACFC561177F0FB47BCFE5B3ABF018931)
Полное имя : E:\торреннты\Alone.We.Fight.2O18.P.WEB-DL.72Op_KOSHARA.mkv
Формат : Matroska
Версия формата : Version 2
Размер файла : 3,44 Гбайт
Продолжительность : 1 ч. 34 м.
Режим общего битрейта : Переменный
Общий поток : 5218 Кбит/сек
Дата кодирования : UTC 2018-11-07 14:01:11
Программа кодирования : mkvmerge v8.3.0 ('Over the Horizon') 64bit
Библиотека кодирования : libebml v1.3.1 + libmatroska v1.4.2

Видео
Идентификатор : 1
Формат : AVC
Формат/Информация : Advanced Video Codec
Профиль формата : High@L4.1
Настройки формата : CABAC / 4 Ref Frames
Параметр CABAC формата : Да
Параметр RefFrames формата : 4 кадра
Идентификатор кодека : V_MPEG4/ISO/AVC
Продолжительность : 1 ч. 34 м.
Вид битрейта : Переменный
Битрейт : 4832 Кбит/сек
Максимальный битрейт : 5500 Кбит/сек
Ширина : 1280 пикселей
Высота : 640 пикселей
Соотношение сторон : 2,000
Режим частоты кадров : Постоянный
Частота кадров : 23,976 (24000/1001) кадра/сек
Стандарт вещания : Component
Цветовое пространство : YUV
Субдискретизация насыщенности : 4:2:0
Битовая глубина : 8 бит
Тип развёртки : Прогрессивная
Бит/(Пиксели*Кадры) : 0.241
Размер потока : 3,12 Гбайт (91%)
Default : Да
Forced : Нет
Цветовой диапазон : Limited
Основные цвета : BT.709
Характеристики трансфера : BT.709
Коэффициенты матрицы : BT.709

Аудио
Идентификатор : 2
Формат : AC-3
Формат/Информация : Audio Coding 3
Идентификатор кодека : A_AC3
Продолжительность : 1 ч. 34 м.
Вид битрейта : Постоянный
Битрейт : 384 Кбит/сек
Каналы : 2 канала
Расположение каналов : Front: L R
Частота : 48,0 КГц
Частота кадров : 31,250 кадров/сек (1536 SPF)
Битовая глубина : 16 бит
Метод сжатия : С потерями
Размер потока : 259 Мбайт (7%)
ServiceKind/String : Complete Main
Default : Да
Forced : Нет

pb.wtf



Скачать Одни в бою через торрент https://a.radikal.ru/a24/1811/f3/68002240dcf5.jpg Скачать фильм Одни в бою через торрент бесплантно в хорошем качестве Описание: В суровых обстоятельствах небольшая, но весьма решительная группа американских солдат отправляется на полную опасностей ... 10 10 5
Торрент: Зарегистрирован [2018-11-08 10:32] · скачан: 42 раз
Статус: T временная
Размер: 3.44 GB
Как cкачать? Как скачать Одни в бою через торрент | qTorrent

% Раздел Тема Автор DL S | L
T Фильмы (мультфильмы) cо спонсором показа (Новинки AVI/MKV) [ 3.82 GB ] Одни в бою / Alone We Fight [2018 Военный WEB-DL 1080p] MVO [@MUZOBOZ@] bober100 Скачать
1 | 0
T Фильмы (мультфильмы) cо спонсором показа (Новинки AVI/MKV) [ 1.37 GB ] Одни в бою / Alone We Fight [2018 Военный WEB-DLRip] MVO [@MUZOBOZ@] bober100 Скачать
1 | 0

28-11-2019 20:33  

Отключить всю рекламу на сайте

08-11-2018 10:48 Одни в бою Скачать торрент  

мда...одни в бою, без командира...В суровых обстоятельствах небольшая, но весьма решительная группа гендерно-толлерантных американских солдат отправляется на полную опасностей территорию врага с миссией нести демократию в третий рейх,и попутно остановить приближающийся отряд тупых и злобных немцев от прорыва линии обороны союзников(наверное французов,чтобы уговорить их потом принимать капитуляцию противных фрицев)...Кто решил и отсмотрел шедевр,напишите...На скриншотах я улицезрел не только бесправное большинство,измученных афроамериканцев(хотя бы это радует,надежда есть)pb.wtf



    Дорогой пользователь! Огромная просьба, поблагодарите релизера, оцените раздачу и оставьте свои комментарий, если Вы скачали Одни в бою через торрент бесплатно! Внесите свою лепту в развитие PiratBit!
    Комментировать посты могут только пользователи прошедшие не сложную регистрацию
    Показать сообщения:    

    Одни в бою через торрент
    Скачать бесплатно Одни в бою
    Одни в бою скачать торрент
    Одни в бою смотреть онлайн
    Cкачать фильм Одни в бою бесплатно
    Одни в бою скачать торрент в хорошем качестве
    Одни в бою смотреть онлайн бесплатно в хорошем качестве


    Вы не можете начинать темы
    Вы не можете отвечать на сообщения
    Вы не можете редактировать свои сообщения
    Вы не можете удалять свои сообщения
    Вы не можете голосовать в опросах
    Вы не можете прикреплять файлы к сообщениям
    Вы можете скачивать файлы