Ссылка на приватное зеркало всего за 1$. Внимание количество ограничено!!!

OK

1+1

iTunes

мы

OK

1

WEB-DLRip

Джокер

Пифагор

Ведьмак / The Witcher сериал

iTunes

ПШазам

ОК

Оно 2

iTunes

30
pack

Вам бонус

ВАЖНО

!!Акция!!

Alien_RageХит недели

RePack

Resident Evil 21

ИГРА 18+

pack

RePack

jed

RePack

fifa19

RePack

Assassins Creed: Odyssey

RePack

NEED FOR SPEED™ PAYBACK

4 сезон

9 сезон

Бесстыжие 9 сезон

Все сериалы

все сериалы на PB.wtf

RePack

FAR CRY 5
  

Одни в бою / Alone We Fight (Джастин Ли) [2018, Военный, WEB-DL 1080p] MVO [@MUZOBOZ@] pb.wtf

Одни в бою через торрент pb.wtf

Размер: 3.82 GB | Добавлен: 1 год 2 мес. назад | Торрент скачан:151 раз
Скачать  

08-11-2018 10:35 Одни в бою Скачать торрент  

Одни в бою / Alone We FightГод выпуска: 2018
Страна: США
Жанр: Военный
Продолжительность: 01:34:22
Перевод: Любительский (многоголосый) | @MUZOBOZ@
Субтитры: отсутствуют

Режиссер: Джастин Ли

rating

В ролях:

Корбин Бернсен, Джонни Месснер, Эйдан Бристоу, Питер «Драго» Тиманн, Филип Натаниэль, Лара Томас Дьюси, Кейт Конвей, Адам Эллиотт Дэвис, Мэтью, Джеймс Маккарти, Эндрю Гарреттон

Описание:

В суровых обстоятельствах небольшая, но весьма решительная группа американских солдат отправляется на полную опасностей территорию врага с миссией остановить приближающийся немецкий отряд от прорыва линии обороны союзников.

Качество: WEB-DL 1080p
Формат: MKV

Видео: h.264, 5 407 kb/s, 1920x958
Аудио#1: Русский, (AC3, 2 ch, 384 Кбит/с)
скриншот  скриншот  скриншот  

Общее
Уникальный идентификатор : 243215129495085559730498542699729733490 (0xB6F987B37894D264A8FFF2996A494772)
Полное имя : E:\торреннты\Alone.We.Fight.2O18.P.WEB-DL.1O8Op_KOSHARA.mkv
Формат : Matroska
Версия формата : Version 2
Размер файла : 3,82 Гбайт
Продолжительность : 1 ч. 34 м.
Режим общего битрейта : Переменный
Общий поток : 5793 Кбит/сек
Дата кодирования : UTC 2018-11-07 14:02:31
Программа кодирования : mkvmerge v8.3.0 ('Over the Horizon') 64bit
Библиотека кодирования : libebml v1.3.1 + libmatroska v1.4.2

Видео
Идентификатор : 1
Формат : AVC
Формат/Информация : Advanced Video Codec
Профиль формата : High@L4.1
Настройки формата : CABAC / 4 Ref Frames
Параметр CABAC формата : Да
Параметр RefFrames формата : 4 кадра
Идентификатор кодека : V_MPEG4/ISO/AVC
Продолжительность : 1 ч. 34 м.
Вид битрейта : Переменный
Битрейт : 5407 Кбит/сек
Максимальный битрейт : 6200 Кбит/сек
Ширина : 1920 пикселей
Высота : 958 пикселей
Соотношение сторон : 2,004
Режим частоты кадров : Постоянный
Частота кадров : 23,976 (24000/1001) кадра/сек
Стандарт вещания : Component
Цветовое пространство : YUV
Субдискретизация насыщенности : 4:2:0
Битовая глубина : 8 бит
Тип развёртки : Прогрессивная
Бит/(Пиксели*Кадры) : 0.120
Размер потока : 3,49 Гбайт (91%)
Default : Да
Forced : Нет
Цветовой диапазон : Limited
Основные цвета : BT.709
Характеристики трансфера : BT.709
Коэффициенты матрицы : BT.709

Аудио
Идентификатор : 2
Формат : AC-3
Формат/Информация : Audio Coding 3
Идентификатор кодека : A_AC3
Продолжительность : 1 ч. 34 м.
Вид битрейта : Постоянный
Битрейт : 384 Кбит/сек
Каналы : 2 канала
Расположение каналов : Front: L R
Частота : 48,0 КГц
Частота кадров : 31,250 кадров/сек (1536 SPF)
Битовая глубина : 16 бит
Метод сжатия : С потерями
Размер потока : 259 Мбайт (7%)
ServiceKind/String : Complete Main
Default : Да
Forced : Нет

pb.wtf



Скачать Одни в бою через торрент https://a.radikal.ru/a24/1811/f3/68002240dcf5.jpg Скачать фильм Одни в бою через торрент бесплантно в хорошем качестве Описание: В суровых обстоятельствах небольшая, но весьма решительная группа американских солдат отправляется на полную опасностей ... 7.5 10 6
Торрент: Зарегистрирован [2018-11-08 10:35] · скачан: 151 раз
Статус: T временная
Размер: 3.82 GB
Как cкачать? Как скачать Одни в бою через торрент | qTorrent

% Раздел Тема Автор DL S | L
T Фильмы (мультфильмы) cо спонсором показа (Новинки AVI/MKV) [ 3.44 GB ] Одни в бою / Alone We Fight [2018 Военный WEB-DL 720p] MVO [@MUZOBOZ@] bober100 Скачать
1 | 0
T Фильмы (мультфильмы) cо спонсором показа (Новинки AVI/MKV) [ 1.37 GB ] Одни в бою / Alone We Fight [2018 Военный WEB-DLRip] MVO [@MUZOBOZ@] bober100 Скачать
1 | 0

28-11-2019 20:33  

Отключить всю рекламу на сайте


09-11-2018 23:00 Одни в бою Скачать торрент  

говорят о нормандии вьетнаме, противотанковые ежи в лесу. какой вьетнам ()))ох америкосыpb.wtf



09-11-2018 23:23 Одни в бою Скачать торрент  

и фильм полный бред. ужас. хотел досмотреть ан нет выдержал лишь до 35 мин.pb.wtf



10-11-2018 22:20 Одни в бою Скачать торрент  

второе фото со спагетти в кетчупе дало мне понять, что качать не стоит...pb.wtf



    Дорогой пользователь! Огромная просьба, поблагодарите релизера, оцените раздачу и оставьте свои комментарий, если Вы скачали Одни в бою через торрент бесплатно! Внесите свою лепту в развитие PiratBit!
    Комментировать посты могут только пользователи прошедшие не сложную регистрацию
    Показать сообщения:    

    Одни в бою через торрент
    Скачать бесплатно Одни в бою
    Одни в бою скачать торрент
    Одни в бою смотреть онлайн
    Cкачать фильм Одни в бою бесплатно
    Одни в бою скачать торрент в хорошем качестве
    Одни в бою смотреть онлайн бесплатно в хорошем качестве


    Вы не можете начинать темы
    Вы не можете отвечать на сообщения
    Вы не можете редактировать свои сообщения
    Вы не можете удалять свои сообщения
    Вы не можете голосовать в опросах
    Вы не можете прикреплять файлы к сообщениям
    Вы можете скачивать файлы