2 сезон

iTunes

MVO

1

2 сезон

iTunes

iTunes

1 сезон

RePack

30

Ultimate

ВАЖНО

ИГРА 18+

pack

RePack

MK11
pack

Легкие деньги

RePack

jed

RePack

fifa19

RePack

RDR2

RePack

NEED FOR SPEED™ PAYBACK

4 сезон

9 сезон

Бесстыжие 9 сезон

Все сериалы

все сериалы на PB.wtf

RePack

FAR CRY 5

Anonymous, добрый день, мы не успеваем собрать деньги на оплату серверов за декабрь и январь, помогите нам пожалуйста в это трудное время. В качестве благодарности мы отключим Вам всю рекламу на сайте (укажите свой ник в строку Ваше имя)!

×
  
Magnet ссылка

Человек-муравей и Оса 3Д / Ant-Man and the Wasp 3D (Пейтон Рид) [2018, фантастика, боевик, приключения, BDRip 1080p] [IMAX Edition] [Half OverUnder / Вертикальная анаморфная стереопара] DUB (rus, ukr) [Лицензия] pb.wtf

Человек-муравей и Оса 3Д через торрент pb.wtf

Размер: 8.64 GB | Добавлен: 2 года 2 мес. назад | Торрент скачан:169 раз
Скачать  

08-11-2018 13:06 Человек-муравей и Оса 3Д Скачать торрент  

Человек-муравей и Оса 3Д
Ant-Man and the Wasp 3D
«Настоящие герои. Размер неважен.»(IMAX Edition)
Год выпуска: 2018
Страна: США
Жанр: фантастика, боевик, приключения
Продолжительность: 01:58:06
Перевод: Дублированный | Лицензия
Субтитры (SRT):
Вшитые (softsub):
#1 - Русские Форсированные (включены по умолчанию)
#2 - Русские Полные
#3 - Русские SDH
#4 - Украинские Форсированные
#5 - English Full
#6 - English SDH

Внешние (UTF-8):
#1 - Русские Форсированные (включены по умолчанию)
#2 - Русские SDH
#3 - Украинские Форсированные

Режиссер: Пейтон Рид

rating

В ролях:

Пол Радд (Scott Lang / Ant-Man), Эванджелин Лилли (Hope Van Dyne / Wasp), Майкл Пенья (Luis), Уолтон Гоггинс (Sonny Burch), Бобби Каннавале (Paxton), Джуди Грир (Maggie), Ти-Ай (Dave), Давид Дастмалчян (Kurt), Ханна Джон-Кэймен (Ava / Ghost), Эбби Райдер Фортсон (Cassie), Рэндолл Парк (Jimmy Woo), Мишель Пфайффер (Janet Van Dyne / Wasp)
Описание:

Скотт Лэнг, известный также, как Человек-Муравей уже заслужил право оказаться в команде Мстителей, но желание быть ближе к собственной дочке удерживает его в родном Сан-Франциско - до тех пор, пока доктор Хэнк Пим, создавший когда-то изменяющий размеры своего владельца чудо-костюм, не призывает Скотта присоединиться к новой, опасной миссии. А помогать в противостоянии с коварным врагом Человеку-Муравью будет новая напарница - Оса.

Качество: BDRip 1080p
Формат: MKV

Видео: MPEG-4 AVC, 1920x1080, 9 Мbit/s, 23.976 fps
Аудио#1: 48 kHz, AC3, 5.1, 640 Kbps | Лицензия | RUS |скриншот  
Аудио#2: 48 kHz, AC3, 2.0, 192 Kbps | iTunes | UKR |
Аудио#3: 48 kHz, AC3, 5.1, 640 Kbps | Оригинал | ENG |
скриншот  

Формат 3D: Half OverUnder / Вертикальная анаморфная стереопара
Порядок ракурсов: левый ракурс первый
скриншот  скриншот  скриншот  скриншот  скриншот  

General
Unique ID : 234890238231292175854898237061357287076 (0xB0B636DF56E6DCA3BE06FE993942B6A4)
Complete name : D:Ant-ManAndTheWasp(2018)3D-halfOU(Ash61)Ant-ManAndTheWasp(2018)3D-halfOU(Ash61).mkv
Format : Matroska
Format version : Version 2
File size : 8.64 GiB
Duration : 1h 58mn
Overall bit rate : 10.5 Mbps
Movie name : Человек-муравей и Оса / Ant-Man and the Wasp (2018) in 3D
Encoded date : UTC 2018-11-08 11:00:21
Writing application : mkvmerge v5.8.0 ('No Sleep / Pillow') built on Sep 2 2012 15:37:04
Writing library : libebml v1.2.3 + libmatroska v1.3.0

Video
ID : 1
Format : AVC
Format/Info : Advanced Video Codec
Format profile : High@L4.1
Format settings, CABAC : Yes
Format settings, ReFrames : 4 frames
Codec ID : V_MPEG4/ISO/AVC
Duration : 1h 58mn
Bit rate : 9 000 Kbps
Width : 1 920 pixels
Height : 1 080 pixels
Display aspect ratio : 16:9
Frame rate mode : Constant
Frame rate : 23.976 (24000/1001) fps
Color space : YUV
Chroma subsampling : 4:2:0
Bit depth : 8 bits
Scan type : Progressive
Bits/(Pixel*Frame) : 0.181
Stream size : 7.25 GiB (84%)
Title : BDRip by Ash61
Writing library : x264 core 146 r2538 121396c
Encoding settings : cabac=1 / ref=4 / deblock=1:-3:-3 / analyse=0x3:0x113 / me=umh / subme=10 / psy=1 / psy_rd=1.00:0.00 / mixed_ref=1 / me_range=32 / chroma_me=1 / trellis=2 / 8x8dct=1 / cqm=0 / deadzone=21,11 / fast_pskip=0 / chroma_qp_offset=-2 / threads=12 / lookahead_threads=2 / sliced_threads=0 / nr=0 / decimate=0 / interlaced=0 / bluray_compat=0 / constrained_intra=0 / bframes=8 / b_pyramid=2 / b_adapt=2 / b_bias=0 / direct=3 / weightb=1 / open_gop=0 / weightp=2 / keyint=250 / keyint_min=23 / scenecut=40 / intra_refresh=0 / rc_lookahead=60 / rc=2pass / mbtree=0 / bitrate=9000 / ratetol=1.0 / qcomp=0.70 / qpmin=0 / qpmax=69 / qpstep=4 / cplxblur=20.0 / qblur=0.5 / vbv_maxrate=40000 / vbv_bufsize=30000 / nal_hrd=none / filler=0 / frame-packing=4 / ip_ratio=1.40 / pb_ratio=1.30 / aq=1:0.70
Language : English
Default : Yes
Forced : No

Audio #1
ID : 2
Format : AC-3
Format/Info : Audio Coding 3
Mode extension : CM (complete main)
Format settings, Endianness : Big
Codec ID : A_AC3
Duration : 1h 58mn
Bit rate mode : Constant
Bit rate : 640 Kbps
Channel(s) : 6 channels
Channel positions : Front: L C R, Side: L R, LFE
Sampling rate : 48.0 KHz
Frame rate : 31.250 fps (1536 spf)
Compression mode : Lossy
Stream size : 541 MiB (6%)
Title : Дубляж (BD 3D Eur)
Language : Russian
Default : Yes
Forced : No

Audio #2
ID : 3
Format : AC-3
Format/Info : Audio Coding 3
Mode extension : CM (complete main)
Format settings, Endianness : Big
Codec ID : A_AC3
Duration : 1h 58mn
Bit rate mode : Constant
Bit rate : 192 Kbps
Channel(s) : 2 channels
Channel positions : Front: L R
Sampling rate : 48.0 KHz
Frame rate : 31.250 fps (1536 spf)
Compression mode : Lossy
Stream size : 162 MiB (2%)
Title : Дубляж (iTunes)
Language : Ukrainian
Default : No
Forced : No

Audio #3
ID : 4
Format : AC-3
Format/Info : Audio Coding 3
Mode extension : CM (complete main)
Format settings, Endianness : Big
Codec ID : A_AC3
Duration : 1h 58mn
Bit rate mode : Constant
Bit rate : 640 Kbps
Channel(s) : 6 channels
Channel positions : Front: L C R, Side: L R, LFE
Sampling rate : 48.0 KHz
Frame rate : 31.250 fps (1536 spf)
Compression mode : Lossy
Stream size : 541 MiB (6%)
Title : Original
Language : English
Default : No
Forced : No

Text #1
ID : 5
Format : UTF-8
Codec ID : S_TEXT/UTF8
Codec ID/Info : UTF-8 Plain Text
Title : Форсированные
Language : Russian
Default : Yes
Forced : No

Text #2
ID : 6
Format : UTF-8
Codec ID : S_TEXT/UTF8
Codec ID/Info : UTF-8 Plain Text
Title : Полные
Language : Russian
Default : No
Forced : No

Text #3
ID : 7
Format : UTF-8
Codec ID : S_TEXT/UTF8
Codec ID/Info : UTF-8 Plain Text
Title : SDH
Language : Russian
Default : No
Forced : No

Text #4
ID : 8
Format : UTF-8
Codec ID : S_TEXT/UTF8
Codec ID/Info : UTF-8 Plain Text
Title : Форсированные
Language : Ukrainian
Default : No
Forced : No

Text #5
ID : 9
Format : UTF-8
Codec ID : S_TEXT/UTF8
Codec ID/Info : UTF-8 Plain Text
Title : Full
Language : English
Default : No
Forced : No

Text #6
ID : 10
Format : UTF-8
Codec ID : S_TEXT/UTF8
Codec ID/Info : UTF-8 Plain Text
Title : SDH
Language : English
Default : No
Forced : No

Menu
00:00:00.000 : : 1. Prologue
00:04:03.033 : : 2. World's Greatest Grandma
00:10:16.407 : : 3. Easy Peasy
00:13:39.860 : : 4. Quantum Entanglement
00:21:25.450 : : 5. Kitchen Conflict
00:29:07.828 : : 6. Bill Foster
00:36:09.083 : : 7. Student Body
00:40:56.579 : : 8. Molecular Disequilibrium
00:50:17.431 : : 9. Truth Serum
00:58:59.077 : : 10. Help From Janet
01:04:56.434 : : 11. Partners
01:12:54.286 : : 12. Misdirection
01:18:32.123 : : 13. San Francisco Car Chase
01:24:44.912 : : 14. Giant-Man
01:29:47.340 : : 15. The Quantum Void
01:36:16.270 : : 16. Extraction
01:43:35.333 : : 17. Happy Endings
01:46:59.829 : : 18. End Credits

pb.wtf



Скачать Человек-муравей и Оса 3Д через торрент http://img10.lostpic.net/2018/10/18/66644c4b2b9da7c50963de4f87e39f14.png Скачать фильм Человек-муравей и Оса 3Д через торрент бесплантно в хорошем качестве Описание: Скотт Лэнг, известный также, как Человек-Муравей уже заслужил право оказаться в команде Мстителей, но желание быть ближе к ... 10 10 2
Торрент: Зарегистрирован [2018-11-08 13:06] · скачан: 169 раз
Статус: √ проверено
Размер: 8.64 GB
Как cкачать? Как скачать Человек-муравей и Оса 3Д через торрент | UTorrent

% Раздел Тема Автор DL S | L
3D Фильмы [ 11.28 GB ] Человек-муравей и Оса в 3Д / Ant-Man and the Wasp 3D [2018 BDRip 1080p] OverUnder / Вертикальная стереопара serega768 Скачать
1 | 0

28-11-2019 20:33  

Отключить всю рекламу на сайте

    Дорогой пользователь! Огромная просьба, поблагодарите релизера, оцените раздачу и оставьте свои комментарий, если Вы скачали Человек-муравей и Оса 3Д через торрент бесплатно! Внесите свою лепту в развитие PiratBit!
    Комментировать посты могут только пользователи прошедшие не сложную регистрацию
    Показать сообщения:    

    Человек-муравей и Оса 3Д через торрент
    Скачать бесплатно Человек-муравей и Оса 3Д
    Человек-муравей и Оса 3Д скачать торрент
    Человек-муравей и Оса 3Д смотреть онлайн
    Cкачать фильм Человек-муравей и Оса 3Д бесплатно
    Человек-муравей и Оса 3Д скачать торрент в хорошем качестве
    Человек-муравей и Оса 3Д смотреть онлайн бесплатно в хорошем качестве


    Вы не можете начинать темы
    Вы не можете отвечать на сообщения
    Вы не можете редактировать свои сообщения
    Вы не можете удалять свои сообщения
    Вы не можете голосовать в опросах
    Вы не можете прикреплять файлы к сообщениям
    Вы можете скачивать файлы