Ссылка на приватное зеркало всего за 1$. Внимание количество ограничено!!!

OK

1+1

iTunes

мы

OK

1

WEB-DLRip

Джокер

Пифагор

Ведьмак / The Witcher сериал

iTunes

ПШазам

ОК

Оно 2

iTunes

30
pack

Вам бонус

ВАЖНО

!!Акция!!

Alien_RageХит недели

RePack

Resident Evil 21

ИГРА 18+

pack

RePack

jed

RePack

fifa19

RePack

Assassins Creed: Odyssey

RePack

NEED FOR SPEED™ PAYBACK

4 сезон

9 сезон

Бесстыжие 9 сезон

Все сериалы

все сериалы на PB.wtf

RePack

FAR CRY 5
  

Рейнджер / The Ranger (Дженнифер Уэкслер) [2018 г., Ужасы, триллер, WEB-DLRip, Любительский (многоголосый) (Синема УС)] pb.wtf

Рейнджер через торрент pb.wtf

Раздают: 1 [ 0 KB/s ]
Размер: 1.32 GB | Добавлен: 1 год 2 мес. назад | Торрент скачан:128 раз
Скачать  

09-11-2018 04:05 Рейнджер Скачать торрент  

Рейнджер / The Ranger
Год выпуска: 2018
Страна: США
Жанр: Ужасы, триллер
Продолжительность: 01:20:06
Перевод: Любительский (многоголосый) (Синема УС)
Субтитры: Отсутствуют

Режиссер: Дженнифер Уэкслер

rating

В ролях: Хлоя Ливайн, Джереми С. Холм, Гранит Лаху, Джереми Пауп, Бабба Уейлер, Аманда Грэйс Купер, Жете Лоранс, Ларри Фессенден, Клэй МакЛеод Чэпман, Джим Джонсон

Описание: Скрываясь от полиции, группа подростков-панков приезжает в полузаброшенный дом в диком заповеднике. Однако, планы ребят ломает смотритель заповедника - мрачный и суровый рейнджер, полный решимости изгнать нежелательные элементы со своей территории.

Доп. информация: Присутствуют вставки текстовой рекламы

Качество: WEB-DLRip
Формат: AVI
Видео кодек: XviD
Аудио кодек: AC3
Видео: XviD, 720x384, ~1968 Kbps
Аудио#1: AC-3, 2 ch, 384 Kbps
скриншот   скриншот   скриншот   скриншот  

Общее
Полное имя : E:\NNM\Рейнджер\The Ranger 2018 WEB-DLRip.avi
Формат : AVI
Формат/Информация : Audio Video Interleave
Профиль формата : OpenDML
Размер файла : 1,32 Гбайт
Продолжительность : 1 ч. 20 м.
Общий поток : 2365 Кбит/сек

Видео
Идентификатор : 0
Формат : MPEG-4 Visual
Профиль формата : Advanced Simple@L5
Настройки формата : BVOP2 / Custom Matrix
Параметр BVOP формата : 2
Параметр QPel формата : Нет
Параметр GMC формата : Без точки перехода
Параметр матрицы формата : Выборочная
Идентификатор кодека : XVID
Идентификатор кодека/Подсказка : XviD
Продолжительность : 1 ч. 20 м.
Битрейт : 1968 Кбит/сек
Ширина : 720 пикселей
Высота : 384 пикселя
Соотношение сторон : 1,85:1
Частота кадров : 23,976 (24000/1001) кадра/сек
Цветовое пространство : YUV
Субдискретизация насыщенности : 4:2:0
Битовая глубина : 8 бит
Тип развёртки : Прогрессивная
Метод сжатия : С потерями
Бит/(Пиксели*Кадры) : 0.297
Размер потока : 1,10 Гбайт (83%)
Библиотека кодирования : XviD 1.2.1 (UTC 2008-12-04)

Аудио
Идентификатор : 1
Формат : AC-3
Формат/Информация : Audio Coding 3
Идентификатор кодека : 2000
Продолжительность : 1 ч. 20 м.
Вид битрейта : Постоянный
Битрейт : 384 Кбит/сек
Каналы : 2 канала
Расположение каналов : Front: L R
Частота : 48,0 КГц
Частота кадров : 31,250 кадров/сек (1536 SPF)
Битовая глубина : 16 бит
Метод сжатия : С потерями
Размер потока : 220 Мбайт (16%)
Выравнивание : Соединение по промежуткам
Продолжительность промежутка : 32 мс. (0,77 видеокадр)
ServiceKind/String : Complete Main

pb.wtf



Скачать Рейнджер через торрент http://pic1.kartinco.top/images/11/88tvc.jpg Скачать фильм Рейнджер через торрент бесплантно в хорошем качестве Описание: Скрываясь от полиции, группа подростков-панков приезжает в полузаброшенный дом в диком заповеднике. Однако, планы ребят ломает ... 8.2 10 5
Торрент: Зарегистрирован [2018-11-09 04:05] · скачан: 128 раз
Статус: T временная
Размер: 1.32 GB
Как cкачать? Как скачать Рейнджер через торрент | qTorrent

% Раздел Тема Автор DL S | L
Классика зарубежного кино [ 753 MB ] Одинокий рейнджер и город золота / The Lone Ranger and the Lost City of Gold [1958 WEBRip-AVC] killermax2013 Скачать
1 | 0
Фильмы 2013 [DVDrip, WEB-DLRip, HDrip] [ 3.14 GB ] Одинокий рейнджер / The Lone Ranger [ 2013 BDRip-AVC ] МАКС1 Скачать
1 | 0
Фильмы [HD 720p, 1080p] (Хороший звук DUB, MVO) [ 16.87 GB ] Одинокий рейнджер / The Lone Ranger [2013 BDRip 1080p DUB ] от R.G. HD-Films Seedtank Скачать
1 | 1
Фильмы 2013 [DVDrip, WEB-DLRip, HDrip] [ 1.45 GB ] Одинокий рейнджер / The Lone Ranger [2013 HDRip [] Ворон Скачать
1 | 0
Фильмы 2013 [DVDrip, WEB-DLRip, HDrip] [ 2.05 GB ] Одинокий рейнджер / The Lone Ranger [2013 BDRip ] VintMosina Скачать
1 | 0
Фильмы [HD 720p, 1080p] (Хороший звук DUB, MVO) [ 5.15 GB ] Одинокий рейнджер / The Lone Ranger [2013 BDRip 720p ] potroks Скачать
1 | 0
Фильмы 2013 [DVDrip, WEB-DLRip, HDrip] [ 2.91 GB ] Одинокий рейнджер / The Lone Ranger [2013 BDRip-AVC ] potroks Скачать
1 | 0

28-11-2019 20:33  

Отключить всю рекламу на сайте

09-11-2018 15:00 Рейнджер Скачать торрент  

Где коммент?pb.wtf



09-11-2018 16:19 Рейнджер Скачать торрент  

Вот он настоящий Голливуд.Только и могут такое снимать, а если выходит что-то путевое, так потом узнаешь, что это ремейк какого-то японского, европейского или же ихнего старого американского фильма.pb.wtf



10-11-2018 12:07 Рейнджер Скачать торрент  

baters писал(а):

Вот он настоящий Голливуд.Только и могут такое снимать, а если выходит что-то путевое, так потом узнаешь, что это ремейк какого-то японского, европейского или же ихнего старого американского фильма.

Иди День Д смотриpb.wtf



13-11-2018 09:33 Рейнджер Скачать торрент  

chiSnoK писал(а):

baters писал(а):

Вот он настоящий Голливуд.Только и могут такое снимать, а если выходит что-то путевое, так потом узнаешь, что это ремейк какого-то японского, европейского или же ихнего старого американского фильма.

Иди День Д смотри

А ты лучше этот посмотри Дикие истории / Relatos salvajes pb.wtf



    Дорогой пользователь! Огромная просьба, поблагодарите релизера, оцените раздачу и оставьте свои комментарий, если Вы скачали Рейнджер через торрент бесплатно! Внесите свою лепту в развитие PiratBit!
    Комментировать посты могут только пользователи прошедшие не сложную регистрацию
    Показать сообщения:    

    Рейнджер через торрент
    Скачать бесплатно Рейнджер
    Рейнджер скачать торрент
    Рейнджер смотреть онлайн
    Cкачать фильм Рейнджер бесплатно
    Рейнджер скачать торрент в хорошем качестве
    Рейнджер смотреть онлайн бесплатно в хорошем качестве


    Вы не можете начинать темы
    Вы не можете отвечать на сообщения
    Вы не можете редактировать свои сообщения
    Вы не можете удалять свои сообщения
    Вы не можете голосовать в опросах
    Вы не можете прикреплять файлы к сообщениям
    Вы можете скачивать файлы