Ссылка на приватное зеркало всего за 1$. Внимание количество ограничено!!!

OK

1+1

iTunes

мы

OK

1

WEB-DLRip

Джокер

Пифагор

Ведьмак / The Witcher сериал

iTunes

ПШазам

ОК

Оно 2

iTunes

30
pack

Вам бонус

ВАЖНО

!!Акция!!

Alien_RageХит недели

RePack

Resident Evil 21

ИГРА 18+

pack

RePack

jed

RePack

fifa19

RePack

Assassins Creed: Odyssey

RePack

NEED FOR SPEED™ PAYBACK

4 сезон

9 сезон

Бесстыжие 9 сезон

Все сериалы

все сериалы на PB.wtf

RePack

FAR CRY 5
  

Я без ума от тебя / Falling for You (Питер ДеЛуис) [2018 г., Мелодрама, HDTVRip, Любительский (многоголосый)(Синема УС)] pb.wtf

Я без ума от тебя через торрент pb.wtf

Размер: 1.34 GB | Добавлен: 1 год 2 мес. назад | Торрент скачан:66 раз
Скачать  

09-11-2018 04:13 Я без ума от тебя Скачать торрент  

Я без ума от тебя / Falling for You
Год выпуска: 2018
Страна: США
Жанр: Мелодрама
Продолжительность: 01:23:39
Перевод: Любительский (многоголосый)(Синема УС)
Субтитры: Отсутствуют

Режиссер: Питер ДеЛуис

rating

В ролях: Тейлор Коул, Тайлер Хайнс, Лини Эванс, Элисон Вандзура, Брэнди Александр ...

Описание: Радиоведущая Лейси устраивает конкурс выпечки для холостяков, чтобы собрать деньги на спасение радиостанции. Когда звездный холостяк отказывается принимать участие, она обращается за помощью к бизнесмену и программисту Заку, который совершенно ничего не смыслит в готовке.

Доп. информация: Присутствуют вставки текстовой рекламы

Качество: HDTVRip
Формат: AVI
Видео кодек: XviD
Аудио кодек: AC3
Видео: XviD, 720x400, ~1895 Kbps
Аудио#1: AC-3, 2 ch, 384 Kbps
скриншот   скриншот   скриншот   скриншот  

Общее
Полное имя : C:\_\Я без ума от тебя\Falling for you 2018 HDTVRip.avi
Формат : AVI
Формат/Информация : Audio Video Interleave
Профиль формата : OpenDML
Размер файла : 1,34 Гбайт
Продолжительность : 1 ч. 23 м.
Общий поток : 2291 Кбит/сек

Видео
Идентификатор : 0
Формат : MPEG-4 Visual
Профиль формата : Advanced Simple@L5
Параметр BVOP формата : 2
Параметр QPel формата : Нет
Параметр GMC формата : Без точки перехода
Параметр матрицы формата : Выборочная
Идентификатор кодека : XVID
Идентификатор кодека/Подсказка : XviD
Продолжительность : 1 ч. 23 м.
Битрейт : 1895 Кбит/сек
Ширина : 720 пикселей
Высота : 400 пикселей
Соотношение сторон : 16:9
Частота кадров : 23,976 (24000/1001) кадра/сек
Цветовое пространство : YUV
Субдискретизация насыщенности : 4:2:0
Битовая глубина : 8 бит
Тип развёртки : Прогрессивная
Метод сжатия : С потерями
Бит/(Пиксели*Кадры) : 0.274
Размер потока : 1,11 Гбайт (83%)
Библиотека кодирования : XviD 1.2.1 (UTC 2008-12-04)

Аудио
Идентификатор : 1
Формат : AC-3
Формат/Информация : Audio Coding 3
Расширение режима : CM (complete main)
Параметр Endianness формата : Big
Идентификатор кодека : 2000
Продолжительность : 1 ч. 23 м.
Вид битрейта : Постоянный
Битрейт : 384 Кбит/сек
Каналы : 2 канала
Расположение каналов : Front: L R
Частота : 48,0 КГц
Частота кадров : 31,250 кадров/сек (1536 spf)
Метод сжатия : С потерями
Размер потока : 230 Мбайт (17%)
Выравнивание : Соединение по промежуткам
Продолжительность промежутка : 32 мс. (0,77 видеокадр)

pb.wtf



Скачать Я без ума от тебя через торрент http://pic1.kartinco.top/images/11/mp7sf.jpg Скачать фильм Я без ума от тебя через торрент бесплантно в хорошем качестве Описание: Радиоведущая Лейси устраивает конкурс выпечки для холостяков, чтобы собрать деньги на спасение радиостанции. Когда звездный ... 5 10 1
Торрент: Зарегистрирован [2018-11-09 04:13] · скачан: 66 раз
Статус: T временная
Размер: 1.34 GB
Как cкачать? Как скачать Я без ума от тебя через торрент | qTorrent

28-11-2019 20:33  

Отключить всю рекламу на сайте

    Дорогой пользователь! Огромная просьба, поблагодарите релизера, оцените раздачу и оставьте свои комментарий, если Вы скачали Я без ума от тебя через торрент бесплатно! Внесите свою лепту в развитие PiratBit!
    Комментировать посты могут только пользователи прошедшие не сложную регистрацию
    Показать сообщения:    

    Я без ума от тебя через торрент
    Скачать бесплатно Я без ума от тебя
    Я без ума от тебя скачать торрент
    Я без ума от тебя смотреть онлайн
    Cкачать фильм Я без ума от тебя бесплатно
    Я без ума от тебя скачать торрент в хорошем качестве
    Я без ума от тебя смотреть онлайн бесплатно в хорошем качестве


    Вы не можете начинать темы
    Вы не можете отвечать на сообщения
    Вы не можете редактировать свои сообщения
    Вы не можете удалять свои сообщения
    Вы не можете голосовать в опросах
    Вы не можете прикреплять файлы к сообщениям
    Вы можете скачивать файлы