Ссылка на приватное зеркало всего за 1$. Внимание количество ограничено!!!

OK

1+1

iTunes

мы

OK

1

WEB-DLRip

Джокер

Пифагор

Ведьмак / The Witcher сериал

iTunes

ПШазам

ОК

Оно 2

iTunes

30
pack

Вам бонус

ВАЖНО

!!Акция!!

Alien_RageХит недели

RePack

Resident Evil 21

ИГРА 18+

pack

RePack

jed

RePack

fifa19

RePack

Assassins Creed: Odyssey

RePack

NEED FOR SPEED™ PAYBACK

4 сезон

9 сезон

Бесстыжие 9 сезон

Все сериалы

все сериалы на PB.wtf

RePack

FAR CRY 5
  

Убей Ради Меня / Proxy Kill (Кайл Даунс) [2018 г., Триллер, драма, криминал, WEB-DLRip, Любительский (многоголосый)(Синема УС)] pb.wtf

Убей Ради Меня через торрент pb.wtf

Размер: 1.29 GB | Добавлен: 1 год 2 мес. назад | Торрент скачан:46 раз
Скачать  

09-11-2018 04:36 Убей Ради Меня Скачать торрент  

Убей Ради Меня / Proxy Kill
Год выпуска: 2018
Страна: США
Жанр: Триллер, драма, криминал
Продолжительность: 01:22:53
Перевод: Любительский (многоголосый)(Синема УС)
Субтитры: Отсутствуют

Режиссер: Кайл Даунс

rating

В ролях: Таша Эймс, Катрин Аннетт, Луис Фернандес-Хиль, Мэнди Амано, Ив Брайт, Чарли Бабкок, Шери Эффрес, Д. Тейлор Лоб, Крэйг М. Джонсон, Энтони ДеБиас

Описание: Мужчина, оставшийся в живых после жестокого преступления, погружается в мир убийств и лжи, связавшись с женщиной, которая использует его для достижения своих низких целей.

Доп. информация: Присутствуют вставки текстовой рекламы

Качество: WEB-DLRip
Формат: AVI
Видео кодек: XviD
Аудио кодек: AC3
Видео: XviD, 720x304, ~1830 Kbps
Аудио#1: AC-3, 2 ch, 384 Kbps
скриншот   скриншот   скриншот   скриншот  

Общее
Полное имя : C:\_\Убей Ради Меня\Proxy Kill 2018 WEB-DLRip.avi
Формат : AVI
Формат/Информация : Audio Video Interleave
Профиль формата : OpenDML
Размер файла : 1,29 Гбайт
Продолжительность : 1 ч. 22 м.
Общий поток : 2227 Кбит/сек

Видео
Идентификатор : 0
Формат : MPEG-4 Visual
Профиль формата : Advanced Simple@L5
Параметр BVOP формата : 2
Параметр QPel формата : Нет
Параметр GMC формата : Без точки перехода
Параметр матрицы формата : Выборочная
Идентификатор кодека : XVID
Идентификатор кодека/Подсказка : XviD
Продолжительность : 1 ч. 22 м.
Битрейт : 1830 Кбит/сек
Ширина : 720 пикселей
Высота : 304 пикселя
Соотношение сторон : 2,35:1
Частота кадров : 23,976 (24000/1001) кадра/сек
Цветовое пространство : YUV
Субдискретизация насыщенности : 4:2:0
Битовая глубина : 8 бит
Тип развёртки : Прогрессивная
Метод сжатия : С потерями
Бит/(Пиксели*Кадры) : 0.349
Размер потока : 1,06 Гбайт (82%)
Библиотека кодирования : XviD 1.2.1 (UTC 2008-12-04)

Аудио
Идентификатор : 1
Формат : AC-3
Формат/Информация : Audio Coding 3
Расширение режима : CM (complete main)
Параметр Endianness формата : Big
Идентификатор кодека : 2000
Продолжительность : 1 ч. 22 м.
Вид битрейта : Постоянный
Битрейт : 384 Кбит/сек
Каналы : 2 канала
Расположение каналов : Front: L R
Частота : 48,0 КГц
Частота кадров : 31,250 кадров/сек (1536 spf)
Метод сжатия : С потерями
Размер потока : 228 Мбайт (17%)
Выравнивание : Соединение по промежуткам
Продолжительность промежутка : 32 мс. (0,77 видеокадр)

pb.wtf



Скачать Убей Ради Меня через торрент http://pic1.kartinco.top/images/11/7u3l9.jpg Скачать фильм Убей Ради Меня через торрент бесплантно в хорошем качестве Описание: Мужчина, оставшийся в живых после жестокого преступления, погружается в мир убийств и лжи, связавшись с женщиной, которая ... 10 10 1
Торрент: Зарегистрирован [2018-11-09 04:36] · скачан: 46 раз
Статус: T временная
Размер: 1.29 GB
Как cкачать? Как скачать Убей Ради Меня через торрент | qTorrent

28-11-2019 20:33  

Отключить всю рекламу на сайте

09-11-2018 12:36 Убей Ради Меня Скачать торрент  

чёт картинка как с парнухи.)pb.wtf



    Дорогой пользователь! Огромная просьба, поблагодарите релизера, оцените раздачу и оставьте свои комментарий, если Вы скачали Убей Ради Меня через торрент бесплатно! Внесите свою лепту в развитие PiratBit!
    Комментировать посты могут только пользователи прошедшие не сложную регистрацию
    Показать сообщения:    

    Убей Ради Меня через торрент
    Скачать бесплатно Убей Ради Меня
    Убей Ради Меня скачать торрент
    Убей Ради Меня смотреть онлайн
    Cкачать фильм Убей Ради Меня бесплатно
    Убей Ради Меня скачать торрент в хорошем качестве
    Убей Ради Меня смотреть онлайн бесплатно в хорошем качестве


    Вы не можете начинать темы
    Вы не можете отвечать на сообщения
    Вы не можете редактировать свои сообщения
    Вы не можете удалять свои сообщения
    Вы не можете голосовать в опросах
    Вы не можете прикреплять файлы к сообщениям
    Вы можете скачивать файлы