новый адрес
Ссылка на приватное зеркало всего за 1$. Внимание количество ограничено!!!

iTunes

1+1

iTunes

мы

WEB-DL

1

iTunes

Чернобыль

iTunes

Ральф против интернета

Лицензия

ПШазам

Лицензия

Оно 2

Лицензия

30
pack

Вам бонус

ВАЖНО

!!Акция!!

Alien_RageХит недели

RePack

Resident Evil 21

ИГРА 18+

pack

RePack

jed

!!Акция!!

Alien_Rage

RePack

fifa19

RePack

Assassins Creed: Odyssey

RePack

NEED FOR SPEED™ PAYBACK

3 сезон

9 сезон

Бесстыжие 9 сезон

Все сериалы

все сериалы на PB.wtf

RePack

FAR CRY 5
Ребята, катастрофически не хватает 1900р. для оплаты серверов за Октябрь (всвязи с блокировками трафик упал в 3 раза), 1-2р., выручайте.
  

Берегись автомобиля (Эльдар Рязанов) [1966, СССР, мелодрама, комедия, криминал, BDRip-HEVC 1080p от AVP Studio] [В цвете] pb.wtf

Берегись автомобиля через торрент pb.wtf

Размер: 3.73 GB | Добавлен: 1 год 1 мес. назад | Торрент скачан:42 раза
Скачать  

09-11-2018 08:53 Берегись автомобиля Скачать торрент  

Берегись автомобиля
Год выпуска: 1966
Страна: СССР
Студии: Мосфильм

Жанр: мелодрама, комедия, криминал
Продолжительность: 01:34:08
Субтитры: нет

Режиссер: Леонид Быков

В ролях:
Иннокентий Смоктуновский, Олег Ефремов, Любовь Добржанская, Ольга Аросева, Андрей Миронов, Татьяна Гаврилова, Анатолий Папанов, Георгий Жжёнов, Евгений Евстигнеев, Сергей Кулагин, Виктория Радунская...
Полный список актёров

Описание:
Эта удивительная история вполне может считаться фантастической. Скромный и застенчивый страховой агент, актер самодеятельного театра Юрий Деточкин оказывается непримиримым борцом за справедливость. Правда, для правосудия, представляемого актером того же театра, а в миру — следователем Подберезовиковым, этот Робин Гуд представляется опасным, хитроумным, изобретательным и неуловимым преступником…

Исходник: Blu-ray 1080p
Тип релиза:BDRip-HEVC 1080p
Контейнер: MKV

Видео: 1480x1080 (4:3), 23,976 кадров/сек, H265 ~ 5224 kbps avg, 0.136 bit/pixel
Аудио: 48 kHz, Dolby Digital AC3 5.1, 448 kbps

Раздача от:
Знаете ли Вы что:
Первоначально на роль Деточкина планировался Юрий Никулин, но он вместе с цирком отправился на гастроли в Южную Африку почти на полгода. В результате на роль Деточкина пробовался Олег Ефремов, но в итоге ее отдали Иннокентию Смоктуновскому, а Ефремов сыграл роль Максима Подберезовикова. На роль Деточкина также пробовались Леонид Куравлёв, Леонид Быков, Василий Лановой, Александр Белявский, Михаил Державин.
Мосфильмовская «Волга» ГАЗ-21, на которой Деточкин ушел от погони, впоследствии стала знаменитым «такси на Дубровку» Папанова (только перекрашенным) в фильме «Бриллиантовая рука» (1968) и машиной-такси героя Ефремова в фильме ««Три тополя» на Плющихе» (1967).
Вальс, звучащий во время погони милиционера за Деточкиным, использует музыкальную фразу из песни «Padam... Padam...». Эта мелодия композитора Андрея Петрова одна из наиболее известных и узнаваемых в мире музыки кино. В репертуаре Сергея Никитина есть песня «Стеклянный Господин» (на стихи Евгения Евтушенко) использующая мотив вальса из фильма «Берегись автомобиля».
В этом фильме Деточкин (Смоктуновский) играет Гамлета в самодеятельности. Примечательно, что Иннокентий Смоктуновский к тому времени уже блестяще сыграл Гамлета в одноименном фильме. Постановка театра самодеятельности использует другой перевод пьесы, М. Лозинского, а не Б. Пастернака.
В эпизоде, где «Волга» Деточкина во время погони задним ходом выезжает с крутой обочины на дорогу, если приглядеться, заметен трос, который вытягивает машину.
В сцене погони Деточкин на большой скорости справа объезжает препятствия в виде стоящего на дороге грузовика (возле него никого нет) и движущегося навстречу автобуса. В следующий миг видно, что грузовик стоит на обочине, а водитель накачивает колесо.
Когда происходит беседа Деточкина с милиционером и тот жалуется на плохой аккумулятор, бордюры то покрашены «в зебру», то нет.
В начале фильма закадровый голос автора утверждает, что не известно в каком городе происходят события. Однако, в сцене беседы в пивбаре, Деточкин произносит фразу о том, что после продажи одной из угнанных машин, он вернулся в... Москву. Следовательно, события фильма разворачиваются в Москве.
Мамой Деточкина в фильме хотели стать актрисы Зелёная и Мансурова, но наиболее убедительная проба получилась у Любови Добржанской.
Специально для съёмок Смоктуновский по настоянию режиссёра сдал на водительские права.
На роль Подберёзовикова пробовались Пётр Щербаков, Алексей Эйбоженко, Олег Борисов, Юрий Яковлев (впоследствий он остался в картине, как «голос за кадром»).
На роль Димы Семицветова пробовались Юрий Белов и Владимир Балон.
Общее
Полное имя : Beregis.avtomobilya.1966.BDRip-HEVC_[New-team]_by_AVP_Studio.mkv
Формат : Matroska
Версия формата : Version 4
Размер файла : 3,73 Гбайт
Продолжительность : 1 ч. 34 м.
Общий поток : 5674 Кбит/сек
Дата кодирования : UTC 2018-11-08 13:58:59
Программа кодирования : mkvmerge v18.0.0 ('Apricity') 64-bit
Библиотека кодирования : libebml v1.3.5 + libmatroska v1.4.8

Видео
Идентификатор : 1
Формат : HEVC
Формат/Информация : High Efficiency Video Coding
Профиль формата : Main@L5.1@Main
Идентификатор кодека : V_MPEGH/ISO/HEVC
Продолжительность : 1 ч. 34 м.
Битрейт : 5224 Кбит/сек
Ширина : 1480 пикселей
Высота : 1080 пикселей
Соотношение сторон : 4:3
Режим частоты кадров : Постоянный
Частота кадров : 23,976 (23976/1000) кадра/сек
Цветовое пространство : YUV
Субдискретизация насыщенности : 4:2:0
Битовая глубина : 8 бит
Бит/(Пиксели*Кадры) : 0.136
Размер потока : 3,44 Гбайт (92%)
Библиотека кодирования : x265 2.8+74-fd517ae68f93:[Windows][GCC 6.3.0][64 bit] 8bit
Настройки программы : cpuid=1111039 / frame-threads=2 / numa-pools=4 / wpp / no-pmode / no-pme / no-psnr / no-ssim / log-level=2 / input-csp=1 / input-res=1480x1080 / interlace=0 / total-frames=0 / level-idc=51 / high-tier=1 / uhd-bd=0 / ref=3 / no-allow-non-conformance / no-repeat-headers / annexb / no-aud / no-hrd / info / hash=0 / no-temporal-layers / no-open-gop / min-keyint=23 / keyint=250 / gop-lookahead=0 / bframes=4 / b-adapt=2 / b-pyramid / bframe-bias=0 / rc-lookahead=20 / lookahead-slices=6 / scenecut=40 / radl=0 / no-intra-refresh / ctu=64 / min-cu-size=8 / no-rect / no-amp / max-tu-size=32 / tu-inter-depth=1 / tu-intra-depth=1 / limit-tu=0 / rdoq-level=0 / dynamic-rd=0.00 / no-ssim-rd / signhide / no-tskip / nr-intra=0 / nr-inter=0 / no-constrained-intra / strong-intra-smoothing / max-merge=2 / limit-refs=3 / no-limit-modes / me=1 / subme=2 / merange=57 / temporal-mvp / weightp / no-weightb / no-analyze-src-pics / deblock=0:0 / sao / no-sao-non-deblock / rd=3 / no-early-skip / rskip / no-fast-intra / no-tskip-fast / no-cu-lossless / no-b-intra / no-splitrd-skip / rdpenalty=0 / psy-rd=2.00 / psy-rdoq=0.00 / no-rd-refine / no-lossless / cbqpoffs=0 / crqpoffs=0 / rc=abr / bitrate=5206 / qcomp=0.60 / qpstep=4 / stats-write=0 / stats-read=0 / ipratio=1.40 / pbratio=1.30 / aq-mode=1 / aq-strength=1.00 / cutree / zone-count=0 / no-strict-cbr / qg-size=32 / no-rc-grain / qpmax=69 / qpmin=0 / no-const-vbv / sar=0 / overscan=0 / videoformat=5 / range=0 / colorprim=2 / transfer=2 / colormatrix=2 / chromaloc=0 / display-window=0 / max-cll=0,0 / min-luma=0 / max-luma=255 / log2-max-poc-lsb=8 / vui-timing-info / vui-hrd-info / slices=1 / no-opt-qp-pps / no-opt-ref-list-length-pps / no-multi-pass-opt-rps / scenecut-bias=0.05 / no-opt-cu-delta-qp / no-aq-motion / no-hdr / no-hdr-opt / no-dhdr10-opt / no-idr-recovery-sei / analysis-reuse-level=5 / scale-factor=0 / refine-intra=0 / refine-inter=0 / refine-mv=0 / no-limit-sao / ctu-info=0 / no-lowpass-dct / refine-mv-type=0 / copy-pic=1 / max-ausize-factor=1.0 / no-dynamic-refine / no-single-sei
Default : Да
Forced : Нет

Аудио
Идентификатор : 2
Формат : AC-3
Формат/Информация : Audio Coding 3
Коммерческое название : Dolby Digital
Идентификатор кодека : A_AC3
Продолжительность : 1 ч. 34 м.
Вид битрейта : Постоянный
Битрейт : 448 Кбит/сек
Каналы : 6 каналов
Channel layout : L R C LFE Ls Rs
Частота : 48,0 КГц
Частота кадров : 31,250 кадров/сек (1536 SPF)
Битовая глубина : 16 бит
Метод сжатия : С потерями
Размер потока : 302 Мбайт (8%)
Default : Да
Forced : Нет
pb.wtf



Скачать Берегись автомобиля через торрент http://picplus.ru/img/1811/08/bff2a3f7.png Скачать фильм Берегись автомобиля через торрент бесплантно в хорошем качестве Описание:Эта удивительная история вполне может считаться фантастической. Скромный и застенчивый страховой агент, актер самодеятельного ... 10 10 4
Info! Золотая раздача, скачанное не засчитывается.
Торрент: Зарегистрирован [2018-11-09 08:53] · скачан: 42 раз
Статус: √ проверено
Размер: 3.73 GB
Как cкачать? Как скачать Берегись автомобиля через торрент | qTorrent

% Раздел Тема Автор DL S | L
Кино СССР [ 1.46 GB ] Берегись автомобиля [1966 СССР BDRip-AVC от AVP Studio] [В цвете] AVP Studio Скачать
1 | 0
Кино СССР [ 4.36 GB ] Берегись автомобиля [1966 СССР BDRip 1080p от AVP Studio] [В цвете] AVP Studio Скачать
1 | 0
Кино СССР [ 745 MB ] Берегись автомобиля [1966 СССР BDRip от AVP Studio] [В цвете] AVP Studio Скачать
1 | 0
Кино СССР [ 2.18 GB ] Берегись автомобиля [1966 СССР BDRip 720p от AVP Studio] [В цвете] AVP Studio Скачать
1 | 0
Кино СССР [ 1.46 GB ] Берегись автомобиля [1966 СССР BDRip от AVP Studio] [В цвете] AVP Studio Скачать
1 | 0
Наши фильмы (HD, WEB-DL 720p, 1080p) [ 2.43 GB ] Берегись автомобиля [1966 BDRip 1080p HEVC] ADVOKAT69 Скачать
1 | 0
Кино СССР [ 2.18 GB ] Берегись автомобиля [1966 BDRip-AVC - ExKinoRay] Enigma2010 Скачать
1 | 0

28-11-2019 20:33  

Отключить всю рекламу на сайте

    Дорогой пользователь! Огромная просьба, поблагодарите релизера, оцените раздачу и оставьте свои комментарий, если Вы скачали Берегись автомобиля через торрент бесплатно! Внесите свою лепту в развитие PiratBit!
    Комментировать посты могут только пользователи прошедшие не сложную регистрацию
    Показать сообщения:    

    Берегись автомобиля через торрент
    Скачать бесплатно Берегись автомобиля
    Берегись автомобиля скачать торрент
    Берегись автомобиля смотреть онлайн
    Cкачать фильм Берегись автомобиля бесплатно
    Берегись автомобиля скачать торрент в хорошем качестве
    Берегись автомобиля смотреть онлайн бесплатно в хорошем качестве


    Вы не можете начинать темы
    Вы не можете отвечать на сообщения
    Вы не можете редактировать свои сообщения
    Вы не можете удалять свои сообщения
    Вы не можете голосовать в опросах
    Вы не можете прикреплять файлы к сообщениям
    Вы можете скачивать файлы