Ссылка на приватное зеркало нашего сайта всего за 1$. Внимание количество ограничено!!!

2 сезон

iTunes

1 сезон

1

iTunes

iTunes

iTunes

1 сезон

RePack

30

ИГРА 18+

pack

ВАЖНО

!!Акция!!

Alien_RageХит недели

RePack

MK11
pack

Забери бонус

RePack

jed

!!Акция!!

Alien_Rage

RePack

fifa19

RePack

Assassins Creed: Odyssey

RePack

NEED FOR SPEED™ PAYBACK

4 сезон

9 сезон

Бесстыжие 9 сезон

Все сериалы

все сериалы на PB.wtf

RePack

FAR CRY 5
  

Обычная женщина / Сезон: 1 / Серии: 1-9 из 9 (Борис Хлебников) [2018, Драма, криминал, WEB-DL 1080p] pb.wtf

Обычная женщина через торрент pb.wtf

Размер: 15.25 GB | Добавлен: 1 год 11 мес. назад | Торрент скачан:145 раз
Скачать  

09-11-2018 11:52 Обычная женщина Скачать торрент  

Обычная женщинаГод выпуска: 2018
Страна: Россия
Жанр: Драма, криминал
Продолжительность: ~ 00:43:00 серия
Субтитры: отсутствуют

Режиссер: Борис Хлебников



В ролях:

Анна Михалкова, Евгений Гришковец, Татьяна Догилева, Аглая Тарасова, Александра Бортич, Александр Сударев, Стася Милославская, Анастасия Шаповал, Сергей Маркелов

Описание:

У 39-летней Марины обычный маленький бизнес — цветочный магазинчик, обычная семья — муж работает хирургом, дочери учатся: младшая — в частной школе, старшая — в институте, и вполне обычные заботы. Окружающим её жизнь кажется счастливой, но за этим благополучным фасадом скрываются невероятные семейные тайны. Это история самой обычной женщины, живущей очень необычной жизнью.

Качество: WEB-DL 1080p
Формат: MKV

Видео: 1920x1080 at 25.000 fps, MPEG-4 AVC, ~5000 kbps avg
Аудио: Russian: 48 kHz, AC3, 2/0 (L,R) ch, ~192 kbps avg
скриншот  скриншот  скриншот  скриншот  

Общее
Уникальный идентификатор : 238858461760991167915453615948654658421 (0xB3B27765D4E29C9A987A616D0FCF4375)
Полное имя : E:\Obychnaya.zhenschina.2018.WEB-DL.(1080p).Getty\Obychnaya.zhenschina.e01.2018.WEB-DL.(1080p).Getty.mkv
Формат : Matroska
Версия формата : Version 4 / Version 2
Размер файла : 1,52 Гбайт
Продолжительность : 42 м. 6 с.
Режим общего битрейта : Постоянный
Общий поток : 5166 Кбит/сек
Название фильма : Obychnaya.zhenschina.e01.2018.WEB-DL.(1080p).Getty
Дата кодирования : UTC 2018-10-29 15:38:43
Программа кодирования : mkvmerge v7.8.0 ('River Man') 32bit built on Mar 27 2015 16:18:02
Библиотека кодирования : libebml v1.3.1 + libmatroska v1.4.2

Видео
Идентификатор : 1
Формат : AVC
Формат/Информация : Advanced Video Codec
Профиль формата : Baseline@L4
Настройки формата : 4 Ref Frames
Параметр CABAC формата : Нет
Параметр RefFrames формата : 4 кадра
Идентификатор кодека : V_MPEG4/ISO/AVC
Продолжительность : 42 м. 6 с.
Вид битрейта : Постоянный
Битрейт : 5000 Кбит/сек
Ширина : 1920 пикселей
Высота : 1080 пикселей
Соотношение сторон : 16:9
Режим частоты кадров : Постоянный
Частота кадров : 25,000 кадров/сек
Стандарт вещания : PAL
Цветовое пространство : YUV
Субдискретизация насыщенности : 4:2:0
Битовая глубина : 8 бит
Тип развёртки : Прогрессивная
Бит/(Пиксели*Кадры) : 0.096
Размер потока : 1,46 Гбайт (96%)
Default : Да
Forced : Нет
Цветовой диапазон : Limited
Основные цвета : BT.709
Характеристики трансфера : BT.709
Коэффициенты матрицы : BT.709

Аудио
Идентификатор : 2
Формат : AC-3
Формат/Информация : Audio Coding 3
Идентификатор кодека : A_AC3
Продолжительность : 42 м. 6 с.
Вид битрейта : Постоянный
Битрейт : 192 Кбит/сек
Каналы : 2 канала
Расположение каналов : Front: L R
Частота : 48,0 КГц
Частота кадров : 31,250 кадров/сек (1536 SPF)
Битовая глубина : 16 бит
Метод сжатия : С потерями
Размер потока : 57,8 Мбайт (4%)
ServiceKind/String : Complete Main
Default : Да
Forced : Нет

pb.wtf



Скачать Обычная женщина через торрент http://i95.fastpic.ru/big/2018/1025/25/ddd8771fe1f8bd092aa9fb1b0d6a2625.jpg Скачать фильм Обычная женщина через торрент бесплантно в хорошем качестве Описание: У 39-летней Марины обычный маленький бизнес — цветочный магазинчик, обычная семья — муж работает хирургом, дочери учатся: младшая ... 10 10 3
Торрент: Зарегистрирован [2018-11-09 11:52] · скачан: 145 раз
Статус: √ проверено
Размер: 15.25 GB
Как cкачать? Как скачать Обычная женщина через торрент | qTorrent

% Раздел Тема Автор DL S | L
TNT serials [ 8.98 GB ] Обычная женщина. Нерассказанная история / Сезон: 1 / Серии: 1-9 из 9 [2018 WEB-DL 720p] [Расширенная версия] bober100 Скачать
2 | 0
Наши сериалы [ 5.29 GB ] Обычная женщина / Сезон: 1 / Серии: 1-9 из 9 [2018 WEB-DLRip-AVC] bober100 Скачать
1 | 0
Наши сериалы [ 8.13 GB ] Обычная женщина / Сезон: 1 / Серии: 1-9 из 9 [2018 WEB-DL 720p] bober100 Скачать
1 | 0
Наши сериалы [ 5.47 GB ] Обычная женщина / Сезон: 1 / Серии: 1-9 из 9 [2018 SATRip] bober100 Скачать
1 | 0
Наши сериалы [ 5.02 GB ] Обычная женщина / Сезон: 1 / Серии: 1-9 из 9 [2018 WEB-DLRip] bober100 Скачать
1 | 0

28-11-2019 20:33  

Отключить всю рекламу на сайте

    Дорогой пользователь! Огромная просьба, поблагодарите релизера, оцените раздачу и оставьте свои комментарий, если Вы скачали Обычная женщина через торрент бесплатно! Внесите свою лепту в развитие PiratBit!
    Комментировать посты могут только пользователи прошедшие не сложную регистрацию
    Показать сообщения:    

    Обычная женщина через торрент
    Скачать бесплатно Обычная женщина
    Обычная женщина скачать торрент
    Обычная женщина смотреть онлайн
    Cкачать фильм Обычная женщина бесплатно
    Обычная женщина скачать торрент в хорошем качестве
    Обычная женщина смотреть онлайн бесплатно в хорошем качестве


    Вы не можете начинать темы
    Вы не можете отвечать на сообщения
    Вы не можете редактировать свои сообщения
    Вы не можете удалять свои сообщения
    Вы не можете голосовать в опросах
    Вы не можете прикреплять файлы к сообщениям
    Вы можете скачивать файлы