MEGA SALE -75% Borderlands 3 Super Deluxe всего за 550р. 180 руб. (супер цена). Внимание количество ограничено!!!

iTunes

1+1

iTunes

мы

iTunes

1

iTunes

Чернобыль

iTunes

Ральф против интернета

Лицензия

ПШазам

Лицензия

Игра престолов

Лицензия

30
pack

ВАЖНО

!!Акция!!

Alien_RageХит недели

RePack

Resident Evil 21

ИГРА 18+

pack

RePack

Metro:Exodus

!!Акция!!

Alien_Rage

RePack

fifa19

RePack

Assassins Creed: Odyssey

RePack

NEED FOR SPEED™ PAYBACK

3 сезон

9 сезон

Бесстыжие 9 сезон

Все сериалы

все сериалы на PB.wtf

RePack

FAR CRY 5
Ребята, катастрофически не хватает 1900р. для оплаты серверов за АВГУСТ (всвязи с блокировками трафик упал в 3 раза), 1-2р., выручайте.
  

Шерлок / Sherlock / Сезон: 1 / Серии: 3 из 3 (Пол Макгиган, Тоби Хайнс) [2010 г., триллер, драма, криминал, детектив, UHD BDRemux 2160p] DUB [Первый канал] + AVO [Ю. Сербин] pb.wtf

Шерлок через торрент pb.wtf

Размер: 112.48 GB | Добавлен: 11 мес. назад | Торрент скачан:19 раз
Скачать  

09-11-2018 16:37 Шерлок Скачать торрент  

Шерлок / Sherlock«Лучший сыщик 21-го века»
Год выпуска: 2010
Страна: Великобритания, США
Жанр: триллер, драма, криминал, детектив
Продолжительность: 3 x ~ 01:30:00
Перевод: Дублированный, авторский
Субтитры: Русские, английские
Режиссер: Пол МакГиган , Ник Харран , Коки Гидройч
В ролях:


Бенедикт Камбербэтч (Sherlock Holmes), Мартин Фриман (Dr. John Watson), Уна Стаббс (Mrs. Hudson), Руперт Грейвз (DI Lestrade), Луиза Брили (Molly Hooper), Марк Гейтисс (Mycroft Holmes), Эндрю Скотт (Jim Moriarty), Аманда Аббингтон (Mary Watson), Джонатан Арис (Anderson), Винетт Робинсон (Sgt Sally Donovan), Таня Муди (Ella), Линдси Дункан (Lady Smallwood)
Описание:
События разворачиваются в наши дни. Он прошел Афганистан, остался инвалидом. По возвращении в родные края встречается с загадочным, но своеобразным гениальным человеком. Тот в поиске соседа по квартире. Лондон, 2010 год. Происходят необъяснимые убийства. Скотланд-Ярд без понятия, за что хвататься. Существует лишь один человек, который в силах разрешить проблемы и найти ответы на сложные вопросы.
Рейтинг:

Качество: UHD BDRemux 2160p
Формат: MKV
Видео: HEVC, HDR, ~ 55.2 Mбит/с, 3840x2160
Аудио 1: Русский (AC3, 2 ch, ~ 192 Кбит/с) | Профессиональный (дублированный) Первый канал
Аудио 2: Русский (AC3, 6 ch, ~ 448 Кбит/с) | Авторский (одноголосый закадровый) Юрий Сербин
Аудио 3: английский (DTS-HD MA, 6 ch, ~ 2315 Кбит/с)
Навигация по главам: есть

1 сезон
01. Этюд в розовых тонах / A Study in Pink
02. Слепой банкир / The Blind Banker
03. Большая игра / The Great Game
General
Unique ID : 254975220762894683168862756023503821212 (0xBFD270F75BEEAF35113F023EE146199C)
Complete name : D:\Video111\Sherlock.S01.BDREMUX.2160p.4K.HEVC.HDR.selezen\Sherlock.S01E01\Sherlock.S01.E01.A.Study.in.Pink.4K.HEVC.HDR.BDREMUX.2160p.selezen.mkv
Format : Matroska
Format version : Version 4
File size : 37.3 GiB
Duration : 1 h 31 min
Overall bit rate mode : Variable
Overall bit rate : 58.1 Mb/s
Movie name : Шерлок S01E01-Этюд в розовых тонах (A Study in Pink) 4K from селезень
Encoded date : UTC 2018-11-09 13:27:27
Writing application : mkvmerge v28.2.0 ('The Awakening') 64-bit
Writing library : libebml v1.3.6 + libmatroska v1.4.9

Video
ID : 1
Format : HEVC
Format/Info : High Efficiency Video Coding
Commercial name : HDR10
Format profile : Main 10@L5.1@High
Codec ID : V_MPEGH/ISO/HEVC
Duration : 1 h 31 min
Bit rate : 55.3 Mb/s
Width : 3 840 pixels
Height : 2 160 pixels
Display aspect ratio : 16:9
Frame rate mode : Constant
Frame rate : 23.976 (24000/1001) FPS
Color space : YUV
Chroma subsampling : 4:2:0 (Type 2)
Bit depth : 10 bits
Bits/(Pixel*Frame) : 0.278
Stream size : 35.4 GiB (95%)
Language : English
Default : Yes
Forced : No
Color range : Limited
Color primaries : BT.2020
Transfer characteristics : PQ
Matrix coefficients : BT.2020 non-constant
Mastering display color pri : Display P3
Mastering display luminance : min: 0.0050 cd/m2, max: 4000 cd/m2
Maximum Content Light Level : 1054 cd/m2
Maximum Frame-Average Light : 1037 cd/m2

Audio #1
ID : 2
Format : AC-3
Format/Info : Audio Coding 3
Commercial name : Dolby Digital
Codec ID : A_AC3
Duration : 1 h 31 min
Bit rate mode : Constant
Bit rate : 192 kb/s
Channel(s) : 2 channels
Channel layout : L R
Sampling rate : 48.0 kHz
Frame rate : 31.250 FPS (1536 SPF)
Bit depth : 16 bits
Compression mode : Lossy
Stream size : 126 MiB (0%)
Title : Dubbing
Language : Russian
Service kind : Complete Main
Default : Yes
Forced : Yes

Audio #2
ID : 3
Format : AC-3
Format/Info : Audio Coding 3
Commercial name : Dolby Digital
Codec ID : A_AC3
Duration : 1 h 31 min
Bit rate mode : Constant
Bit rate : 384 kb/s
Channel(s) : 6 channels
Channel layout : L R C LFE Ls Rs
Sampling rate : 48.0 kHz
Frame rate : 31.250 FPS (1536 SPF)
Bit depth : 16 bits
Compression mode : Lossy
Stream size : 252 MiB (1%)
Title : AVO [Serbin]
Language : Russian
Service kind : Complete Main
Default : No
Forced : No

Audio #3
ID : 4
Format : DTS XLL
Format/Info : Digital Theater Systems
Commercial name : DTS-HD Master Audio
Codec ID : A_DTS
Duration : 1 h 31 min
Bit rate mode : Variable
Bit rate : 2 283 kb/s
Channel(s) : 6 channels
Channel layout : C L R Ls Rs LFE
Sampling rate : 48.0 kHz
Frame rate : 93.750 FPS (512 SPF)
Bit depth : 16 bits
Compression mode : Lossless
Stream size : 1.46 GiB (4%)
Title : Original
Language : English
Default : No
Forced : No

Text #1
ID : 5
Format : UTF-8
Codec ID : S_TEXT/UTF8
Codec ID/Info : UTF-8 Plain Text
Duration : 1 h 30 min
Bit rate : 129 b/s
Count of elements : 1282
Stream size : 85.7 KiB (0%)
Title : Full
Language : Russian
Default : No
Forced : No

Text #2
ID : 6
Format : UTF-8
Codec ID : S_TEXT/UTF8
Codec ID/Info : UTF-8 Plain Text
Duration : 1 h 29 min
Bit rate : 76 b/s
Count of elements : 1378
Stream size : 50.3 KiB (0%)
Title : SDH
Language : English
Default : No
Forced : No

Menu
00:00:00.000 : :00:00:00.000
00:12:32.251 : :00:12:32.251
00:23:59.772 : :00:23:59.772
00:36:04.621 : :00:36:04.621
00:44:05.852 : :00:44:05.852
00:57:37.621 : :00:57:37.621
01:05:38.101 : :01:05:38.101
01:25:08.103 : :01:25:08.103

__________________________________________________________________________

General
Unique ID : 79116389623079326621983259723926048616 (0x3B85432BC62AC27CD36DE6417AE38F68)
Complete name : D:\Video111\Sherlock.S01.BDREMUX.2160p.4K.HEVC.HDR.selezen\Sherlock.S01E02\Sherlock.S01E02.The.Blind.Banker.4K.HEVC.HDR.BDREMUX.2160p.selezen.mkv
Format : Matroska
Format version : Version 4
File size : 37.4 GiB
Duration : 1 h 32 min
Overall bit rate mode : Variable
Overall bit rate : 58.1 Mb/s
Movie name : Шерлок S01E02 Слепой банкир (The Blind Banker) 4K from селезень
Encoded date : UTC 2018-11-09 12:33:39
Writing application : mkvmerge v28.2.0 ('The Awakening') 64-bit
Writing library : libebml v1.3.6 + libmatroska v1.4.9

Video
ID : 1
Format : HEVC
Format/Info : High Efficiency Video Coding
Commercial name : HDR10
Format profile : Main 10@L5.1@High
Codec ID : V_MPEGH/ISO/HEVC
Duration : 1 h 32 min
Bit rate : 55.2 Mb/s
Width : 3 840 pixels
Height : 2 160 pixels
Display aspect ratio : 16:9
Frame rate mode : Constant
Frame rate : 23.976 (24000/1001) FPS
Color space : YUV
Chroma subsampling : 4:2:0 (Type 2)
Bit depth : 10 bits
Bits/(Pixel*Frame) : 0.278
Stream size : 35.5 GiB (95%)
Language : English
Default : Yes
Forced : No
Color range : Limited
Color primaries : BT.2020
Transfer characteristics : PQ
Matrix coefficients : BT.2020 non-constant
Mastering display color pri : Display P3
Mastering display luminance : min: 0.0050 cd/m2, max: 4000 cd/m2
Maximum Content Light Level : 1054 cd/m2
Maximum Frame-Average Light : 1054 cd/m2

Audio #1
ID : 2
Format : AC-3
Format/Info : Audio Coding 3
Commercial name : Dolby Digital
Codec ID : A_AC3
Duration : 1 h 32 min
Bit rate mode : Constant
Bit rate : 160 kb/s
Channel(s) : 2 channels
Channel layout : L R
Sampling rate : 48.0 kHz
Frame rate : 31.250 FPS (1536 SPF)
Bit depth : 16 bits
Compression mode : Lossy
Stream size : 105 MiB (0%)
Title : Dubbing
Language : Russian
Service kind : Complete Main
Default : Yes
Forced : Yes

Audio #2
ID : 3
Format : AC-3
Format/Info : Audio Coding 3
Commercial name : Dolby Digital
Codec ID : A_AC3
Duration : 1 h 31 min
Bit rate mode : Constant
Bit rate : 384 kb/s
Channel(s) : 6 channels
Channel layout : L R C LFE Ls Rs
Sampling rate : 48.0 kHz
Frame rate : 31.250 FPS (1536 SPF)
Bit depth : 16 bits
Compression mode : Lossy
Stream size : 251 MiB (1%)
Title : AVO [Serbin]
Language : Russian
Service kind : Complete Main
Default : No
Forced : No

Audio #3
ID : 4
Format : DTS XLL
Format/Info : Digital Theater Systems
Commercial name : DTS-HD Master Audio
Codec ID : A_DTS
Duration : 1 h 32 min
Bit rate mode : Variable
Bit rate : 2 327 kb/s
Channel(s) : 6 channels
Channel layout : C L R Ls Rs LFE
Sampling rate : 48.0 kHz
Frame rate : 93.750 FPS (512 SPF)
Bit depth : 16 bits
Compression mode : Lossless
Stream size : 1.50 GiB (4%)
Title : Original
Language : English
Default : No
Forced : No

Text #1
ID : 5
Format : UTF-8
Codec ID : S_TEXT/UTF8
Codec ID/Info : UTF-8 Plain Text
Duration : 1 h 31 min
Bit rate : 99 b/s
Count of elements : 1081
Stream size : 66.7 KiB (0%)
Title : Full
Language : Russian
Default : No
Forced : No

Text #2
ID : 6
Format : UTF-8
Codec ID : S_TEXT/UTF8
Codec ID/Info : UTF-8 Plain Text
Duration : 1 h 31 min
Bit rate : 59 b/s
Count of elements : 1164
Stream size : 40.1 KiB (0%)
Title : SDH
Language : English
Default : No
Forced : No

Menu
00:00:00.000 : :00:00:00.000
00:10:35.385 : :00:10:35.385
00:20:26.100 : :00:20:26.100
00:32:08.969 : :00:32:08.969
00:41:02.794 : :00:41:02.794
00:54:30.976 : :00:54:30.976
01:04:56.184 : :01:04:56.184
01:18:10.019 : :01:18:10.019

________________________________________________________________________________

General
Unique ID : 117083330043392713835795154789150345928 (0x58156DDB96D1E4B3B55C19C3638DCAC8)
Complete name : D:\Video111\Sherlock.S01.BDREMUX.2160p.4K.HEVC.HDR.selezen\Sherlock.S01E03\Sherlock.S01E03.The.Great.Game.4K.HEVC.HDR.BDREMUX.2160p.selezen.mkv
Format : Matroska
Format version : Version 4
File size : 37.8 GiB
Duration : 1 h 33 min
Overall bit rate mode : Variable
Overall bit rate : 58.1 Mb/s
Movie name : Шерлок S01E03-Большая игра (The Great Game) 4K from селезень
Encoded date : UTC 2018-11-09 14:11:43
Writing application : mkvmerge v28.2.0 ('The Awakening') 64-bit
Writing library : libebml v1.3.6 + libmatroska v1.4.9

Video
ID : 1
Format : HEVC
Format/Info : High Efficiency Video Coding
Commercial name : HDR10
Format profile : Main 10@L5.1@High
Codec ID : V_MPEGH/ISO/HEVC
Duration : 1 h 33 min
Bit rate : 55.2 Mb/s
Width : 3 840 pixels
Height : 2 160 pixels
Display aspect ratio : 16:9
Frame rate mode : Constant
Frame rate : 23.976 (24000/1001) FPS
Color space : YUV
Chroma subsampling : 4:2:0 (Type 2)
Bit depth : 10 bits
Bits/(Pixel*Frame) : 0.278
Stream size : 35.9 GiB (95%)
Language : English
Default : Yes
Forced : No
Color range : Limited
Color primaries : BT.2020
Transfer characteristics : PQ
Matrix coefficients : BT.2020 non-constant
Mastering display color pri : Display P3
Mastering display luminance : min: 0.0050 cd/m2, max: 4000 cd/m2
Maximum Content Light Level : 10000 cd/m2
Maximum Frame-Average Light : 1035 cd/m2

Audio #1
ID : 2
Format : AC-3
Format/Info : Audio Coding 3
Commercial name : Dolby Digital
Codec ID : A_AC3
Duration : 1 h 33 min
Bit rate mode : Constant
Bit rate : 192 kb/s
Channel(s) : 2 channels
Channel layout : L R
Sampling rate : 48.0 kHz
Frame rate : 31.250 FPS (1536 SPF)
Bit depth : 16 bits
Compression mode : Lossy
Stream size : 128 MiB (0%)
Title : Dubbing
Language : Russian
Service kind : Complete Main
Default : Yes
Forced : Yes

Audio #2
ID : 3
Format : AC-3
Format/Info : Audio Coding 3
Commercial name : Dolby Digital
Codec ID : A_AC3
Duration : 1 h 33 min
Bit rate mode : Constant
Bit rate : 448 kb/s
Channel(s) : 6 channels
Channel layout : L R C LFE Ls Rs
Sampling rate : 48.0 kHz
Frame rate : 31.250 FPS (1536 SPF)
Bit depth : 16 bits
Compression mode : Lossy
Stream size : 299 MiB (1%)
Title : AVO [Serbin]
Language : Russian
Service kind : Complete Main
Default : No
Forced : No

Audio #3
ID : 4
Format : DTS XLL
Format/Info : Digital Theater Systems
Commercial name : DTS-HD Master Audio
Codec ID : A_DTS
Duration : 1 h 33 min
Bit rate mode : Variable
Bit rate : 2 315 kb/s
Channel(s) : 6 channels
Channel layout : C L R Ls Rs LFE
Sampling rate : 48.0 kHz
Frame rate : 93.750 FPS (512 SPF)
Bit depth : 16 bits
Compression mode : Lossless
Stream size : 1.51 GiB (4%)
Title : Original
Language : English
Default : No
Forced : No

Text #1
ID : 5
Format : UTF-8
Codec ID : S_TEXT/UTF8
Codec ID/Info : UTF-8 Plain Text
Duration : 1 h 32 min
Bit rate : 127 b/s
Count of elements : 1271
Stream size : 86.3 KiB (0%)
Title : Full
Language : Russian
Default : No
Forced : No

Text #2
ID : 6
Format : UTF-8
Codec ID : S_TEXT/UTF8
Codec ID/Info : UTF-8 Plain Text
Duration : 1 h 32 min
Bit rate : 77 b/s
Count of elements : 1449
Stream size : 51.9 KiB (0%)
Title : SDH
Language : English
Default : No
Forced : No

Menu
00:00:00.000 : :00:00:00.000
00:11:25.685 : :00:11:25.685
00:23:21.191 : :00:23:21.191
00:35:51.191 : :00:35:51.191
00:48:38.165 : :00:48:38.165
01:00:17.030 : :01:00:17.030
01:10:44.240 : :01:10:44.240
01:23:11.737 : :01:23:11.737
pb.wtf



Скачать Шерлок через торрент https://b.radikal.ru/b10/1811/05/8d11e13a5262.jpg Скачать фильм Шерлок через торрент бесплантно в хорошем качестве Описание: События разворачиваются в наши дни. Он прошел Афганистан, остался инвалидом. По возвращении в родные края встречается с ... 10 10 5
Info! Золотая раздача, скачанное не засчитывается.
Торрент: Зарегистрирован [2018-11-09 16:37] · скачан: 19 раз
Статус: √ проверено
Размер: 112.48 GB
Как cкачать? Как скачать Шерлок через торрент | qTorrent

% Раздел Тема Автор DL S | L
Шерлок [ 7 GB ] Шерлок / Sherlock / Сезон: 4 / Серии: 1-3 из 3 [2017 WEBRip 720p] [Локализованная версия] killermax2013 Скачать
3 | 0
Шерлок [ 64.54 GB ] Шерлок / Sherlock / Сезон: 1-3 / Серии: 1-9 из 9 [2010-2014 BDRip 1080p] [Локализованная версия] killermax2013 Скачать
3 | 0
Шерлок [ 14 GB ] Шерлок / Sherlock / Сезон: 4 / Серии: 1-3 из 3 [2017 HDTV 1080i] [Локализованная версия] killermax2013 Скачать
3 | 1
Шерлок [ 2.72 GB ] Шерлок / Sherlock / Сезон: 4 / Серии: 1-2 из 3 [2017 HDTVRip] [Локализованная версия] killermax2013 Скачать
4 | 0
Шерлок [ 12.18 GB ] Шерлок / Sherlock Сезон: 2 / Серии: 1-3 из 3 [2012 BDRip ] Sудья Скачать
1 | 0
T Шерлок [ 10.89 GB ] Шерлок / Sherlock / Сезон: 4 / Серии: 1-2 из 3 [2017 WEBRip 1080p] + [Subs] killermax2013 Скачать
1 | 0
Фильмы с украинским озвучиванием [ 8.87 GB ] Шерлок / Sherlock / Сезон: 4 / Серии: 1-2 из 3 [2017 WEB-DL 1080p] [Ukr DUB] + [Sub] killermax2013 Скачать
1 | 0


>> Регистрируемся здесь <<






Отзывы и комментарии о схеме читаем и пишем здесь: ---> Отзывы и комментарии о схеме

Новые благодарочки в телеграм довольных пользователей:
скриншот   скриншот   скриншот   скриншот   скриншот

09-11-2018 19:58 Шерлок Скачать торрент  

да ладно? 112 гб pb.wtf



04-03-2019 18:50 Шерлок Скачать торрент  

Ждем продолжения в 4Кpb.wtf



    Дорогой пользователь! Огромная просьба, поблагодарите релизера, оцените раздачу и оставьте свои комментарий, если Вы скачали Шерлок через торрент бесплатно! Внесите свою лепту в развитие PiratBit!
    Комментировать посты могут только пользователи прошедшие не сложную регистрацию
    Показать сообщения:    

    Шерлок через торрент
    Скачать бесплатно Шерлок
    Шерлок скачать торрент
    Шерлок смотреть онлайн
    Cкачать фильм Шерлок бесплатно
    Шерлок скачать торрент в хорошем качестве
    Шерлок смотреть онлайн бесплатно в хорошем качестве


    Вы не можете начинать темы
    Вы не можете отвечать на сообщения
    Вы не можете редактировать свои сообщения
    Вы не можете удалять свои сообщения
    Вы не можете голосовать в опросах
    Вы не можете прикреплять файлы к сообщениям
    Вы можете скачивать файлы