1 сезон

1 сезон

iTunes

1

КиноПоиск HD

Кинопоиск HD

iTunes

13

1 сезон

RePack

30

Новинка

ВАЖНО

ИГРА 18+

pack

RePack

MK11
pack

Легкие деньги

RePack

jed

RePack

fifa19

RePack

RDR2

RePack

NEED FOR SPEED™ PAYBACK

4 сезон

9 сезон

Бесстыжие 9 сезон

Все сериалы

все сериалы на PB.wtf

RePack

FAR CRY 5
  
Magnet ссылка

Степфордские жены / The Stepford Wives (Фрэнк Оз) [2004 г., ужасы, фантастика, триллер, комедия, HDRip] DUB pb.wtf

Степфордские жены через торрент pb.wtf

Размер: 1.37 GB | Добавлен: 2 года 5 мес. назад | Торрент скачан:47 раз
Скачать  

09-11-2018 23:29 Степфордские жены Скачать торрент  

Степфордские жены / The Stepford Wives
«У стэпфордских жен есть один секрет»
Год выпуска: 2004
Страна: США
Жанр: Ужасы, фантастика, триллер, комедия
Продолжительность: 01:28:56
Перевод: Дубляж

Режиссер: Фрэнк Оз

rating

В ролях: Николь Кидман, Бетт Мидлер, Мэттью Бродерик, Кристофер Уокен, Фэйт Хилл, Гленн Клоуз, Джон Ловиц, Андреа Андерс, КаДи Стрикленд

Описание: Пережившая нервный срыв руководительница телекомпании Джоанна Эберхарт переезжает вместе с мужем Уолтером в городок Степфорд, штат Коннектикут, чтобы побыть вдали от стрессов большого города. Этот райский уголок на первый взгляд представляется идеальным. Но вскоре Джоанна и ее новая подруга Бобби замечают, в кажущейся безмятежности есть что-то странное, настораживающее. Да и местные домохозяйки ведут себя как-то уж слишком подозрительно: все одинаково приветливые, ухоженные и скучные, как роботы. Джоанна решает во что бы то ни стало докопаться до тайны, которую скрывает совершенный город и его безупречные жены…
Качество: HDRip
Формат: AVI
Видео кодек: XviD
Аудио кодек: AC3
Видео: XviD, 1751 Кбит/с, 704x400
Аудио: Русский, AC3, 6 ch, 448 Кбит/с
Видео
Идентификатор : 0
Формат : MPEG-4 Visual
Профиль формата : Advanced Simple@L5
Параметр BVOP формата : 1
Параметр QPel формата : Нет
Параметр GMC формата : Без точки перехода
Параметр матрицы формата : Default (MPEG)
Идентификатор кодека : XVID
Идентификатор кодека/Подсказка : XviD
Продолжительность : 1 ч. 28 м.
Битрейт : 1751 Кбит/сек
Ширина : 704 пикселя
Высота : 400 пикселей
Соотношение сторон : 16:9
Частота кадров : 25,000 кадров/сек
Цветовое пространство : YUV
Субдискретизация насыщенности : 4:2:0
Битовая глубина : 8 бит
Тип развёртки : Прогрессивная
Метод сжатия : С потерями
Бит/(Пиксели*Кадры) : 0.249
Размер потока : 1,09 Гбайт (79%)
Библиотека кодирования : XviD 1.2.1 (UTC 2008-12-04)

Аудио
Идентификатор : 1
Формат : AC-3
Формат/Информация : Audio Coding 3
Расширение режима : CM (complete main)
Параметр Endianness формата : Big
Идентификатор кодека : 2000
Продолжительность : 1 ч. 28 м.
Вид битрейта : Постоянный
Битрейт : 448 Кбит/сек
Каналы : 6 каналов
Расположение каналов : Front: L C R, Side: L R, LFE
Частота : 48,0 КГц
Частота кадров : 31,250 кадров/сек (1536 spf)
Битовая глубина : 16 бит
Метод сжатия : С потерями
Размер потока : 285 Мбайт (20%)
Выравнивание : Разделение по промежуткам
Продолжительность промежутка : 40 мс. (1,00 видеокадр)
Время предзагрузки промежутка : 500 мс.

скриншот   скриншот   скриншот   скриншот   скриншот   скриншот  

pb.wtf



Скачать Степфордские жены через торрент https://pic1.kartinco.top/images/11/3dgon.jpg Скачать фильм Степфордские жены через торрент бесплантно в хорошем качестве Описание: Пережившая нервный срыв руководительница телекомпании Джоанна Эберхарт переезжает вместе с мужем Уолтером в городок Степфорд, ... 10 10 2
Торрент: Зарегистрирован [2018-11-09 23:29] · скачан: 47 раз
Статус: √ проверено
Размер: 1.37 GB
Как cкачать? Как скачать Степфордские жены через торрент | UTorrent

% Раздел Тема Автор DL S | L
Фильмы 2001-2005 [ 1.37 GB ] Степфордские жены / The Stepford Wives [2004 DVDRip DUB] capral555 Скачать
1 | 0

28-11-2019 20:33  

Отключить всю рекламу на сайте

    Дорогой пользователь! Огромная просьба, поблагодарите релизера, оцените раздачу и оставьте свои комментарий, если Вы скачали Степфордские жены через торрент бесплатно! Внесите свою лепту в развитие PiratBit!
    Комментировать посты могут только пользователи прошедшие не сложную регистрацию
    Показать сообщения:    

    Степфордские жены через торрент
    Скачать бесплатно Степфордские жены
    Степфордские жены скачать торрент
    Степфордские жены смотреть онлайн
    Cкачать фильм Степфордские жены бесплатно
    Степфордские жены скачать торрент в хорошем качестве
    Степфордские жены смотреть онлайн бесплатно в хорошем качестве


    Вы не можете начинать темы
    Вы не можете отвечать на сообщения
    Вы не можете редактировать свои сообщения
    Вы не можете удалять свои сообщения
    Вы не можете голосовать в опросах
    Вы не можете прикреплять файлы к сообщениям
    Вы можете скачивать файлы