Всегда рабочее зеркало без VPN и Proxy просто перед .vidak.icu напиши любое слово или цифру, Пример http://glb7.vidak.icu

MVO

2 сезон

2 сезон

1

1 сезон

iTunes

2 сезон

13

1 сезон

Deluxe

pack

Рекомендуем

Пиратка

30

ВАЖНО

RePack

MK11

RePack

jed

RePack

fifa19

RePack

RDR2

RePack

NEED FOR SPEED™ PAYBACK

Кинопоиск HD

6 сезон

 Острые козырьки 6 сезон

Все сериалы

все сериалы на PB.wtf

RePack

FAR CRY 5

Anonymous, нам критически не хватает 5601 руб. на оплату серверов и переферии за Апрель, помоги нам пожалуйста, вся надежда только на тебя. В благодарность мы отключим тебе всю рекламу на сайте!

×
  
Magnet ссылка

Особо опасен / Wanted (Тимур Бекмамбетов) [2008, фэнтези, боевик, триллер, криминал, BDRip 720p by msltel] DUB, 2 x AVO pb.wtf

Особо опасен через торрент pb.wtf

Размер: 4.81 GB | Добавлен: 3 года 6 мес. назад | Торрент скачан:174 раза
Смотреть онлайн Особо опасен | Скачать    Ребята, помогите собрать деньги на оплату серверов!!!

10-11-2018 06:53 Особо опасен Скачать торрент  

Название: Особо опасен
Оригинальное название: Wanted
Год выпуска: 2008
Страна: США, Германия
Жанр: фэнтези, боевик, триллер, криминал
Продолжительность: 01:49:53
Перевод: дублированный, авторский

Режиссер: Тимур Бекмамбетов
В ролях: Джеймс МакЭвой, Морган Фримен, Анджелина Джоли, Теренс Стэмп, Томас Кречманн, Коммон, Кристен Хагер, Марк Уоррен, Дэвид О`Хара, Константин Хабенский, Крис Прэтт, Лорна Скотт, София Хак

О фильме: Уэсли Гибсон зануда и нытик, целыми днями торчащий в офисе. Босс его унижает, подружка ему изменяет. Его жизнь катится в никуда. Когда отец, бросивший его в раннем детстве, зверски убит, Уэс оказывается втянут в тайное общество киллеров под названием «Братство». За его обучение берётся опытная наставница Фокс, и этот, когда-то прикованный к офисному креслу, хлюпик развивает молниеносную реакцию и сверхчеловеческую скорость. Однако уже на первом задании Уэсли понимает - есть вещи посложнее, чем вершить судьбы других людей. Это — набраться храбрости и стать хозяином собственной жизни...



Качество: BDRip 720p
Формат: MKV
Видео: MPEG-4 AVC, 4464 Kбит/с, 1280x544, 23.976 кадр/с
Аудио 1: русский, AC3, 448 kbps, 6 ch, 48 kHz [дублированный]
Аудио 2: русский, AC3, 448 kbps, 6 ch, 48 kHz [авторский, Андрей Гаврилов]
Аудио 3: русский, AC3, 448 kbps, 6 ch, 48 kHz [авторский, Михаил Чадов, с ненормативонй лексикой]
Аудио 4: английский, AC3, 448 kbps, 6 ch, 48 kHz [оригинал]
Субтитры 1: русские
Субтитры 2: английские
Главы/чаптеры
Общее
Уникальный идентификатор : 181618078815495373688798538174995239611 (0x88A25EA0F13985AA825E6990E70E12BB)
Полное имя : D:\Video\Особо опасен.2008.BDRip 720p by msltel.mkv
Формат : Matroska
Версия формата : Version 4
Размер файла : 4,81 Гбайт
Продолжительность : 1 ч. 50 м.
Общий поток : 6230 Кбит/сек
Название фильма : Rip by msltel
Дата кодирования : UTC 2018-11-09 06:49:46
Программа кодирования : mkvmerge v8.2.0 ('World of Adventure') 64bit
Библиотека кодирования : libebml v1.3.1 + libmatroska v1.4.2

Видео
Идентификатор : 1
Формат : AVC
Формат/Информация : Advanced Video Codec
Профиль формата : High@L4.1
Настройки формата : CABAC / 9 Ref Frames
Параметр CABAC формата : Да
Параметр RefFrames формата : 9 кадров
Идентификатор кодека : V_MPEG4/ISO/AVC
Продолжительность : 1 ч. 49 м.
Битрейт : 4464 Кбит/сек
Ширина : 1280 пикселей
Высота : 544 пикселя
Соотношение сторон : 2,35:1
Режим частоты кадров : Постоянный
Частота кадров : 23,976 (24000/1001) кадра/сек
Цветовое пространство : YUV
Субдискретизация насыщенности : 4:2:0
Битовая глубина : 8 бит
Тип развёртки : Прогрессивная
Бит/(Пиксели*Кадры) : 0.267
Размер потока : 3,43 Гбайт (71%)
Библиотека кодирования : x264 core 155 r2901 7d0ff22
Настройки программы : cabac=1 / ref=9 / deblock=1:-3:-2 / analyse=0x3:0x113 / me=umh / subme=11 / psy=1 / psy_rd=1.00:0.15 / mixed_ref=1 / me_range=32 / chroma_me=1 / trellis=2 / 8x8dct=1 / cqm=0 / deadzone=21,11 / fast_pskip=0 / chroma_qp_offset=-3 / threads=6 / lookahead_threads=1 / sliced_threads=0 / nr=0 / decimate=1 / interlaced=0 / bluray_compat=0 / constrained_intra=0 / bframes=8 / b_pyramid=2 / b_adapt=2 / b_bias=0 / direct=1 / weightb=1 / open_gop=0 / weightp=2 / keyint=230 / keyint_min=23 / scenecut=40 / intra_refresh=0 / rc_lookahead=40 / rc=crf / mbtree=1 / crf=18.6 / qcomp=0.60 / qpmin=0 / qpmax=69 / qpstep=4 / vbv_maxrate=62500 / vbv_bufsize=78125 / crf_max=0.0 / nal_hrd=none / filler=0 / ip_ratio=1.40 / aq=1:1.00
Язык : English
Default : Да
Forced : Нет

Аудио #1
Идентификатор : 2
Формат : AC-3
Формат/Информация : Audio Coding 3
Коммерческое название : Dolby Digital
Идентификатор кодека : A_AC3
Продолжительность : 1 ч. 50 м.
Вид битрейта : Постоянный
Битрейт : 448 Кбит/сек
Каналы : 6 каналов
Channel layout : L R C LFE Ls Rs
Частота : 48,0 КГц
Частота кадров : 31,250 кадров/сек (1536 SPF)
Битовая глубина : 16 бит
Метод сжатия : С потерями
Размер потока : 354 Мбайт (7%)
Заголовок : DUB
Язык : Russian
ServiceKind/String : Complete Main
Default : Да
Forced : Нет

Аудио #2
Идентификатор : 3
Формат : AC-3
Формат/Информация : Audio Coding 3
Коммерческое название : Dolby Digital
Идентификатор кодека : A_AC3
Продолжительность : 1 ч. 49 м.
Вид битрейта : Постоянный
Битрейт : 448 Кбит/сек
Каналы : 6 каналов
Channel layout : L R C LFE Ls Rs
Частота : 48,0 КГц
Частота кадров : 31,250 кадров/сек (1536 SPF)
Битовая глубина : 16 бит
Метод сжатия : С потерями
Размер потока : 352 Мбайт (7%)
Заголовок : Андрей Гаврилов
Язык : Russian
ServiceKind/String : Complete Main
Default : Нет
Forced : Нет

Аудио #3
Идентификатор : 4
Формат : AC-3
Формат/Информация : Audio Coding 3
Коммерческое название : Dolby Digital
Идентификатор кодека : A_AC3
Продолжительность : 1 ч. 49 м.
Вид битрейта : Постоянный
Битрейт : 448 Кбит/сек
Каналы : 6 каналов
Channel layout : L R C LFE Ls Rs
Частота : 48,0 КГц
Частота кадров : 31,250 кадров/сек (1536 SPF)
Битовая глубина : 16 бит
Метод сжатия : С потерями
Размер потока : 352 Мбайт (7%)
Заголовок : Михаил Чадов
Язык : Russian
ServiceKind/String : Complete Main
Default : Нет
Forced : Нет

Аудио #4
Идентификатор : 5
Формат : AC-3
Формат/Информация : Audio Coding 3
Коммерческое название : Dolby Digital
Идентификатор кодека : A_AC3
Продолжительность : 1 ч. 49 м.
Вид битрейта : Постоянный
Битрейт : 448 Кбит/сек
Каналы : 6 каналов
Channel layout : L R C LFE Ls Rs
Частота : 48,0 КГц
Частота кадров : 31,250 кадров/сек (1536 SPF)
Битовая глубина : 16 бит
Метод сжатия : С потерями
Размер потока : 352 Мбайт (7%)
Заголовок : original
Язык : English
ServiceKind/String : Complete Main
Default : Нет
Forced : Нет

Текст #1
Идентификатор : 6
Формат : UTF-8
Идентификатор кодека : S_TEXT/UTF8
Идентификатор кодека/Информация : UTF-8 Plain Text
Продолжительность : 1 ч. 41 м.
Битрейт : 59 бит/сек
ElementCount : 803
Размер потока : 44,3 Кбайт (0%)
Заголовок : русские
Язык : Russian
Default : Нет
Forced : Нет

Текст #2
Идентификатор : 7
Формат : UTF-8
Идентификатор кодека : S_TEXT/UTF8
Идентификатор кодека/Информация : UTF-8 Plain Text
Продолжительность : 1 ч. 41 м.
Битрейт : 35 бит/сек
ElementCount : 822
Размер потока : 26,2 Кбайт (0%)
Заголовок : английские
Язык : English
Default : Нет
Forced : Нет

Меню
00:00:00.000 : en:Chapter 1
00:07:01.921 : en:Chapter 2
00:12:58.235 : en:Chapter 3
00:20:58.590 : en:Chapter 4
00:26:25.834 : en:Chapter 5
00:32:11.512 : en:Chapter 6
00:37:30.373 : en:Chapter 7
00:42:04.688 : en:Chapter 8
00:45:22.136 : en:Chapter 9
00:51:52.901 : en:Chapter 10
00:56:23.838 : en:Chapter 11
01:00:58.780 : en:Chapter 12
01:04:00.211 : en:Chapter 13
01:09:42.636 : en:Chapter 14
01:13:32.032 : en:Chapter 15
01:20:23.777 : en:Chapter 16
01:27:10.683 : en:Chapter 17
01:33:24.557 : en:Chapter 18
01:39:26.460 : en:Chapter 19
01:42:22.052 : en:Chapter 20
01:49:52.794 : en:Chapter 21
pb.wtf



Скачать Особо опасен через торрент https://c.radikal.ru/c38/1811/08/7d553816d62f.jpg Скачать, смотреть онлайн Особо опасен бесплантно в хорошем качестве О фильме: Уэсли Гибсон зануда и нытик, целыми днями торчащий в офисе. Босс его унижает, подружка ему изменяет. Его жизнь катится в никуда. ... 8 10 5
Info! Золотая раздача, скачанное не засчитывается.
Торрент: Зарегистрирован [2018-11-10 06:53] · скачан: 174 раз
Статус: √ проверено
Размер: 4.81 GB
Как cкачать? Как скачать Особо опасен через торрент | UTorrent

% Раздел Тема Автор DL S | L
Фильмы [HD 720p, 1080p] (Хороший звук DUB, MVO) [ 13.59 GB ] Особо опасен / Wanted [2008 BDRip 1080p by msltel] DUB 2 x AVO msltel Скачать
1 | 0

28-11-2019 20:33  

Отключить всю рекламу на сайте

10-11-2018 07:00 Особо опасен Скачать торрент  

Вторая часть будет ли кто вкурсе?pb.wtf



10-11-2018 07:36 Особо опасен Скачать торрент  

andi555777 писал(а):

Вторая часть будет ли кто вкурсе?

да 2 часть будет. я уже приступил к съемкам. вот бомжей набрал к съемкам. бюджет не велик, ящик водки.pb.wtf



10-11-2018 08:39 Особо опасен Скачать торрент  

почему не приходят уведомления на почту?pb.wtf



10-11-2018 12:30 Особо опасен Скачать торрент  

Какая такая вторая часть-все кроме ГГ-мертвы(совсем и основательно)...pb.wtf



    Дорогой пользователь! Огромная просьба, поблагодарите релизера, оцените раздачу и оставьте свои комментарий, если Вы скачали Особо опасен через торрент бесплатно!
    Комментировать посты могут только пользователи прошедшие не сложную регистрацию
    Показать сообщения:    

    Особо опасен через торрент
    Скачать бесплатно Особо опасен
    Особо опасен скачать торрент
    Особо опасен смотреть онлайн
    Cкачать фильм Особо опасен бесплатно
    Особо опасен скачать торрент в хорошем качестве
    Особо опасен смотреть онлайн бесплатно в хорошем качестве


    Вы не можете начинать темы
    Вы не можете отвечать на сообщения
    Вы не можете редактировать свои сообщения
    Вы не можете удалять свои сообщения
    Вы не можете голосовать в опросах
    Вы не можете прикреплять файлы к сообщениям
    Вы можете скачивать файлы