2 сезон

iTunes

1 сезон

1

iTunes

iTunes

iTunes

1 сезон

RePack

30

ИГРА 18+

pack

ВАЖНО

!!Акция!!

Alien_RageХит недели

RePack

MK11
pack

Забери бонус

RePack

jed

!!Акция!!

Alien_Rage

RePack

fifa19

RePack

Assassins Creed: Odyssey

RePack

NEED FOR SPEED™ PAYBACK

4 сезон

9 сезон

Бесстыжие 9 сезон

Все сериалы

все сериалы на PB.wtf

RePack

FAR CRY 5
  

Купель дьявола / Серия 1 - 4 из 4 / (Александра Бутько) [2018 г., Детектив, SATRip] pb.wtf

Купель дьявола через торрент pb.wtf

Размер: 2.42 GB | Добавлен: 1 год 11 мес. назад | Торрент скачан:132 раза
Скачать  

10-11-2018 10:58 Купель дьявола Скачать торрент  

Купель дьявола / Серия 1 - 4 из 4 /
Год выпуска: 2018
Страна: Россия
Жанр: Детектив
Продолжительность: 4 х ~00:47:00
Субтитры: Отсутствуют

Режиссер: Александра Бутько

В ролях: Полина Толстун, Илья Носков, Кирилл Жандаров, Евгения Игумнова, Борис Хвошнянский...

Описание: Пять столетий назад в маленький голландский городок пришел талантливый художник. Не осталось жителя, который не хотел бы получить портрет, написанный его рукой. Вскоре город захлестнула череда необъяснимых смертей, и самым необычным было то, что все погибшие были героями картин живописца. Вершиной его творчества стал алтарный триптих "Страшный суд". Полотно оказалось пророческим - вскоре город и его жителей поглотило небывалое наводнение. В руки владелицы небольшой арт-галереи в Санкт-Петербурге Кати Соловьевой неожиданно попадает редкое полотно. Благодаря другу Лаврухе она выясняет, что оно принадлежит кисти того самого Лукаса ван Остреа. Особенно интересно, что рыжеволосая красавица с картины имеет удивительное сходство с самой героиней. Вскоре Катя узнает, что "картина убивает" и все ее предыдущие владельцы погибли. В это верится с трудом, но ровно до тех пор, пока беда не приходит в дом ее подруги Жеки. Разобраться, откуда тянется шлейф мистических смертей, предстоит самой Катерине и настойчивому капитану полиции Кириллу Маричу...

Качество: SATRip
Формат: AVI
Видео кодек: XviD
Аудио кодек: MP3
Видео: 720x400 (1.80:1), 25 fps, XviD build 50 ~1800 kbps
Аудио#1: 48 kHz, MPEG Layer 3, 2 ch, ~128.00 kbps
скриншот   скриншот   скриншот   скриншот  

General
Complete name : H:\релизы.торрентфайл\Kupel.dyavola.SATRip.[www.riperam.org]\Kupel.dyavola.01.SATRip.[www.riperam.org].avi
Format : AVI
Format/Info : Audio Video Interleave
File size : 605 MiB
Duration : 43mn 38s
Overall bit rate : 1 938 Kbps
Writing application : VirtualDubMod 1.5.10.3 | www.virtualdub-fr.org || (build 2550/release)
Writing library : VirtualDubMod build 2550/release

Video
ID : 0
Format : MPEG-4 Visual
Format profile : Advanced Simple@L5
Format settings, BVOP : 2
Format settings, QPel : No
Format settings, GMC : No warppoints
Format settings, Matrix : Default (H.263)
Codec ID : XVID
Codec ID/Hint : XviD
Duration : 43mn 38s
Bit rate : 1 800 Kbps
Width : 720 pixels
Height : 400 pixels
Display aspect ratio : 16:9
Frame rate : 25.000 fps
Color space : YUV
Chroma subsampling : 4:2:0
Bit depth : 8 bits
Scan type : Progressive
Compression mode : Lossy
Bits/(Pixel*Frame) : 0.250
Stream size : 562 MiB (93%)
Writing library : XviD 1.2.1 (UTC 2008-12-04)

Audio
ID : 1
Format : MPEG Audio
Format version : Version 1
Format profile : Layer 3
Mode : Joint stereo
Mode extension : MS Stereo
Codec ID : 55
Codec ID/Hint : MP3
Duration : 43mn 38s
Bit rate mode : Constant
Bit rate : 128 Kbps
Channel(s) : 2 channels
Sampling rate : 48.0 KHz
Compression mode : Lossy
Stream size : 40.0 MiB (7%)
Alignment : Aligned on interleaves
Interleave, duration : 40 ms (1.00 video frame)
Interleave, preload duration : 504 ms
Writing library : LAME3.99r
Encoding settings : -m j -V 4 -q 9 -lowpass 17 -b 128

Внимание! Раздача ведётся путём добавления новых серий; при каждом добавлении создётся новый торрент. Чтобы начать докачку новой серии, пользователям необходимо сделать следующее:
  • Остановить скачивание,
  • Удалить старый торрент у себя из клиента (старые серии удалять не надо),
  • Скачать новый торрент и запустить его у себя в клиенте вместо старого, при этом указать клиенту путь в старую папку куда и должно происходить скачивание новых серий.
Ваш клиент при этом должен произвести хеширование (проверку) старой папки (если не производит сам - помогите ему сделать это), и будет докачивать только те серии которых у вас ещё нет. Старые серии при этом не удаляются, а продолжают раздаваться!

Eсли вы уже удалили старые серии, то предотвратить повторную закачку старых серий можно, отжав галочку в соответсвующих местах при запуске нового торрента. По возможности, желательно не удалять старые серии как можно дольше чтобы релизёр не столько продолжал раздавать старые серии, а смог сконцентрироваться на новых.
pb.wtf



Скачать Купель дьявола через торрент http://pic1.kartinco.top/images/11/h5oju.jpg Скачать фильм Купель дьявола через торрент бесплантно в хорошем качестве Описание: Пять столетий назад в маленький голландский городок пришел талантливый художник. Не осталось жителя, который не хотел бы получить ... 10 10 8
Торрент: Зарегистрирован [2018-11-10 11:55] · скачан: 132 раз
Статус: √ проверено
Размер: 2.42 GB
Как cкачать? Как скачать Купель дьявола через торрент | qTorrent

% Раздел Тема Автор DL S | L
Наши сериалы [ 2.12 GB ] Купель дьявола / Серии: 1-4 из 4 [2018 экранизация SATRip-AVC] aleksan55 Скачать
1 | 0

28-11-2019 20:33  

Отключить всю рекламу на сайте

    Дорогой пользователь! Огромная просьба, поблагодарите релизера, оцените раздачу и оставьте свои комментарий, если Вы скачали Купель дьявола через торрент бесплатно! Внесите свою лепту в развитие PiratBit!
    Комментировать посты могут только пользователи прошедшие не сложную регистрацию
    Показать сообщения:    

    Купель дьявола через торрент
    Скачать бесплатно Купель дьявола
    Купель дьявола скачать торрент
    Купель дьявола смотреть онлайн
    Cкачать фильм Купель дьявола бесплатно
    Купель дьявола скачать торрент в хорошем качестве
    Купель дьявола смотреть онлайн бесплатно в хорошем качестве


    Вы не можете начинать темы
    Вы не можете отвечать на сообщения
    Вы не можете редактировать свои сообщения
    Вы не можете удалять свои сообщения
    Вы не можете голосовать в опросах
    Вы не можете прикреплять файлы к сообщениям
    Вы можете скачивать файлы