MEGA SALE -50% FORZA HORIZON 4 ULTIMATE+ВСЕ DLC+ОНЛАЙН всего за 599р. 299 руб. (супер цена). Внимание количество ограничено!!!

iTunes

1+1

iTunes

мы

iTunes

1

iTunes

Чернобыль

iTunes

Ральф против интернета

Лицензия

ПШазам

Лицензия

Игра престолов

Лицензия

30
pack

ВАЖНО

!!Акция!!

Alien_RageХит недели

RePack

Resident Evil 21

ИГРА 18+

pack

RePack

Metro:Exodus

!!Акция!!

Alien_Rage

RePack

fifa19

RePack

Assassins Creed: Odyssey

RePack

NEED FOR SPEED™ PAYBACK

3 сезон

9 сезон

Бесстыжие 9 сезон

Все сериалы

все сериалы на PB.wtf

RePack

FAR CRY 5
Ребята, катастрофически не хватает 7730р. для оплаты серверов за ИЮЛЬ (всвязи с блокировками трафик упал в 3 раза), 1-2р., выручайте.
  

Четвёртый вид / The Fourth Kind (Олатунде Осунсанми) [2009 г., ужасы, фантастика, триллер, детектив, BDRip] DUB, MVO [Лицензия] pb.wtf

Четвёртый вид через торрент pb.wtf

Раздают: 1 [ 0 KB/s ]
Размер: 2.48 GB | Добавлен: 9 мес. назад | Торрент скачан:51 раз
Скачать  

10-11-2018 11:23 Четвёртый вид Скачать торрент  

Четвёртый вид / The Fourth Kind
Год выпуска: 2009
Страна: США, Великобритания
Жанр: Ужасы, фантастика, триллер, детектив
Продолжительность: 01:38:01
Перевод: Дубляж, профессиональный (многоголосый) - Лицензия
Субтитры: Русские, английские (отдельным файлом)

Режиссер: Олатунде Осунсанми

rating

В ролях: Милла Йовович, Уилл Пэттон, Хаким Кае-Казим, Кори Джонсон, Энзо Силенти, Элиас Котеас, Эрик Лорен, Мия МакКенна-Брюс, Рафаэль Коулмэн, Дафна Александр

Описание: На территории Аляски происходят необъяснимые исчезновения людей. Несмотря на все усилия ФБР, расследования зашли в тупик, и тайна, по-прежнему, не раскрыта. Психиатр Эбигейл Тайлер начинает записывать на видео беседы со своими пациентами и обнаруживает нечто очень страшное и пугающее…
Качество: BDRip
Формат: AVI
Видео кодек: XviD
Аудио кодек: AC3
Видео: XviD, 2268 Кбит/с, 720x304
Аудио#1: Русский, AC3, 6 ch, 448 Кбит/с - DUB
Аудио#2: Русский, AC3, 6 ch, 448 Кбит/с - MVO
Аудио#3: Английский, AC3, 6 ch, 448 Кбит/с - (отдельным файлом)
Видео
Идентификатор : 0
Формат : MPEG-4 Visual
Профиль формата : Advanced Simple@L5
Параметр BVOP формата : 1
Параметр QPel формата : Нет
Параметр GMC формата : Без точки перехода
Параметр матрицы формата : Выборочная
Идентификатор кодека : XVID
Идентификатор кодека/Подсказка : XviD
Продолжительность : 1 ч. 38 м.
Битрейт : 2268 Кбит/сек
Ширина : 720 пикселей
Высота : 304 пикселя
Соотношение сторон : 2,35:1
Частота кадров : 23,976 (24000/1001) кадра/сек
Частота кадров в оригинале : 23,976 (23976/1000) кадра/сек
Цветовое пространство : YUV
Субдискретизация насыщенности : 4:2:0
Битовая глубина : 8 бит
Тип развёртки : Прогрессивная
Метод сжатия : С потерями
Бит/(Пиксели*Кадры) : 0.432
Размер потока : 1,55 Гбайт (71%)
Библиотека кодирования : XviD 73

Аудио #1
Идентификатор : 1
Формат : AC-3
Формат/Информация : Audio Coding 3
Расширение режима : CM (complete main)
Параметр Endianness формата : Big
Идентификатор кодека : 2000
Продолжительность : 1 ч. 37 м.
Вид битрейта : Постоянный
Битрейт : 448 Кбит/сек
Каналы : 6 каналов
Расположение каналов : Front: L C R, Side: L R, LFE
Частота : 48,0 КГц
Частота кадров : 31,250 кадров/сек (1536 spf)
Битовая глубина : 16 бит
Метод сжатия : С потерями
Размер потока : 314 Мбайт (14%)
Выравнивание : Разделение по промежуткам
Продолжительность промежутка : 42 мс. (1,00 видеокадр)
Время предзагрузки промежутка : 500 мс.

Аудио #2
Идентификатор : 2
Формат : AC-3
Формат/Информация : Audio Coding 3
Расширение режима : CM (complete main)
Параметр Endianness формата : Big
Идентификатор кодека : 2000
Продолжительность : 1 ч. 38 м.
Вид битрейта : Постоянный
Битрейт : 448 Кбит/сек
Каналы : 6 каналов
Расположение каналов : Front: L C R, Side: L R, LFE
Частота : 48,0 КГц
Частота кадров : 31,250 кадров/сек (1536 spf)
Битовая глубина : 16 бит
Метод сжатия : С потерями
Размер потока : 314 Мбайт (14%)
Выравнивание : Разделение по промежуткам
Продолжительность промежутка : 42 мс. (1,00 видеокадр)
Время предзагрузки промежутка : 500 мс.

скриншот   скриншот   скриншот   скриншот   скриншот   скриншот  

pb.wtf



Скачать Четвёртый вид через торрент http://pic1.kartinco.top/images/11/qxb7o.jpg Скачать фильм Четвёртый вид через торрент бесплантно в хорошем качестве Описание: На территории Аляски происходят необъяснимые исчезновения людей. Несмотря на все усилия ФБР, расследования зашли в тупик, и ... 10 10 3
Торрент: Зарегистрирован [2018-11-10 11:23] · скачан: 51 раз
Статус: √ проверено
Размер: 2.48 GB
Как cкачать? Как скачать Четвёртый вид через торрент | qTorrent

% Раздел Тема Автор DL S | L
Фильмы (HD 720p, 1080p) (48-60 fps) [ 4.76 GB ] Четвёртый вид / The Fourth Kind [2009 BDRip 720p] [60FPS] WorldSM Скачать
1 | 0
Фильмы [HD 720p, 1080p] (Хороший звук DUB, MVO) [ 4.67 GB ] Четвертый вид / The Fourth Kind [2009 BDRip 720p.] diletant Скачать
1 | 0
Фильмы [HD 720p, 1080p] (Хороший звук DUB, MVO) [ 4.67 GB ] Четвёртый вид / The Fourth Kind [2009 BDRip ] VintMosina Скачать
1 | 0
Фильмы 2009 [ 1.36 GB ] Четвертый вид / The Fourth Kind [2009 HDRip][ лицензия ] SD Скачать
1 | 0
Фильмы 2009 [ 1.31 GB ] Четвёртый вид / Fourth Kind The [2009 ... DVDRip лицензия] kuvagen Скачать
1 | 0
Фильмы 2009 [ 695 MB ] Четвертый вид / The Fourth Kind [2009 DVDRip] SD Скачать
1 | 0
Фильмы 2009 [ 1.37 GB ] Четвертый вид / The Fourth Kind [2009 DVDScreener] SD Скачать
1 | 0


>> Регистрируемся здесь <<






Отзывы и комментарии о схеме читаем и пишем здесь: ---> Отзывы и комментарии о схеме

Новые благодарочки в телеграм довольных пользователей:
скриншот   скриншот   скриншот   скриншот   скриншот
    Дорогой пользователь! Огромная просьба, поблагодарите релизера, оцените раздачу и оставьте свои комментарий, если Вы скачали Четвёртый вид через торрент бесплатно! Внесите свою лепту в развитие PiratBit!
    Комментировать посты могут только пользователи прошедшие не сложную регистрацию
    Показать сообщения:    

    Четвёртый вид через торрент
    Скачать бесплатно Четвёртый вид
    Четвёртый вид скачать торрент
    Четвёртый вид смотреть онлайн
    Cкачать фильм Четвёртый вид бесплатно
    Четвёртый вид скачать торрент в хорошем качестве
    Четвёртый вид смотреть онлайн бесплатно в хорошем качестве


    Вы не можете начинать темы
    Вы не можете отвечать на сообщения
    Вы не можете редактировать свои сообщения
    Вы не можете удалять свои сообщения
    Вы не можете голосовать в опросах
    Вы не можете прикреплять файлы к сообщениям
    Вы можете скачивать файлы