Ссылка на приватное зеркало всего за 1$. Внимание количество ограничено!!!

iTunes

1+1

iTunes

мы

WEB-DL

1

iTunes

Чернобыль

iTunes

Ральф против интернета

Лицензия

ПШазам

Лицензия

Оно 2

Лицензия

30
pack

Вам бонус

ВАЖНО

!!Акция!!

Alien_RageХит недели

RePack

Resident Evil 21

ИГРА 18+

pack

RePack

jed

!!Акция!!

Alien_Rage

RePack

fifa19

RePack

Assassins Creed: Odyssey

RePack

NEED FOR SPEED™ PAYBACK

3 сезон

9 сезон

Бесстыжие 9 сезон

Все сериалы

все сериалы на PB.wtf

RePack

FAR CRY 5
Ребята, катастрофически не хватает 1900р. для оплаты серверов за Октябрь (всвязи с блокировками трафик упал в 3 раза), 1-2р., выручайте.
  

Король вне закона / Outlaw King (Дэвид Маккензи) [2018, боевик, драма, биография, история, WEBRip] DUB [Невафильм] pb.wtf

Король вне закона через торрент pb.wtf

Раздают: 8 [ 13 KB/s ] Качают: 1 [ 0 KB/s ]
Размер: 1.45 GB | Добавлен: 1 год 1 мес. назад | Торрент скачан:1933 раза
Скачать  

10-11-2018 17:34 Король вне закона Скачать торрент  

Король вне закона / Outlaw King Год выпуска: 2018
Страна: Великобритания, США
Жанр: боевик, драма, биография, история
Продолжительность: 02:01:38
Перевод: Дублированный (Невафильм)
Субтитры: Русские (форсированные) (внешние .srt*)

Режиссер: Дэвид Маккензи

rating

В ролях:

Крис Пайн, Стивен Диллэйн, Ребекка Робин, Билли Хоул, Пол Блэр, Сэм Спруэлл, Джонатан Филлипс, Бен Клиффорд, Джэми МакЛахлан, Данкан Лакруа

Описание:

История Роберта Брюса, одного из величайших шотландских монархов, организатора обороны страны в начальный период войны за независимость против Англии.

Качество: WEBRip
Формат: AVI

Видео: 720x304 (2.37:1), 24.000 fps, XviD build 67 ~1311 kbps avg, 0.25 bit/pixel
Аудио: Russian: 48 kHz, AC3, 3/2 (L,C,R,l,r) + LFE ch, ~384 kbps avg |Дубляж, Невафильм|
скриншот   скриншот   скриншот   скриншот  

Общее
Полное имя : D:\Korol`_vne_zakona_2018_WEB-DLRip_by_Dalemake\Korol`_vne_zakona_2018_WEB-DLRip_by_Dalemake.avi
Формат : AVI
Формат/Информация : Audio Video Interleave
Размер файла : 1,45 Гбайт
Продолжительность : 2 ч. 1 м.
Общий поток : 1705 Кбит/сек
Программа кодирования : VirtualDubMod 1.5.10.3 | www.virtualdub-fr.org || (build 2550/release)
Библиотека кодирования : VirtualDubMod build 2550/release

Видео
Идентификатор : 0
Формат : MPEG-4 Visual
Профиль формата : Advanced Simple@L5
Настройки формата : BVOP1 / Custom Matrix
Параметр BVOP формата : 1
Параметр QPel формата : Нет
Параметр GMC формата : Без точки перехода
Параметр матрицы формата : Выборочная
Идентификатор кодека : XVID
Идентификатор кодека/Подсказка : XviD
Продолжительность : 2 ч. 1 м.
Битрейт : 1311 Кбит/сек
Ширина : 720 пикселей
Высота : 304 пикселя
Соотношение сторон : 2,35:1
Частота кадров : 24,000 кадра/сек
Цветовое пространство : YUV
Субдискретизация насыщенности : 4:2:0
Битовая глубина : 8 бит
Тип развёртки : Прогрессивная
Метод сжатия : С потерями
Бит/(Пиксели*Кадры) : 0.250
Размер потока : 1,11 Гбайт (77%)
Библиотека кодирования : XviD 67

Аудио
Идентификатор : 1
Формат : AC-3
Формат/Информация : Audio Coding 3
Идентификатор кодека : 2000
Продолжительность : 2 ч. 1 м.
Вид битрейта : Постоянный
Битрейт : 384 Кбит/сек
Каналы : 6 каналов
Расположение каналов : Front: L C R, Side: L R, LFE
Частота : 48,0 КГц
Частота кадров : 31,250 кадров/сек (1536 SPF)
Битовая глубина : 16 бит
Метод сжатия : С потерями
Размер потока : 334 Мбайт (23%)
Выравнивание : Разделение по промежуткам
Продолжительность промежутка : 42 мс. (1,00 видеокадр)
Время предзагрузки промежутка : 500 мс.
ServiceKind/String : Complete Main

pb.wtf



Скачать Король вне закона через торрент http://pic1.kartinco.top/images/11/6in7f.jpg Скачать фильм Король вне закона через торрент бесплантно в хорошем качестве Описание: История Роберта Брюса, одного из величайших шотландских монархов, организатора обороны страны в начальный период войны за ... 9.9 10 37
Info! Золотая раздача, скачанное не засчитывается.
Торрент: Зарегистрирован [2018-11-10 17:34] · скачан: 1 933 раз
Статус: √ проверено
Размер: 1.45 GB
Как cкачать? Как скачать Король вне закона через торрент | qTorrent

% Раздел Тема Автор DL S | L
Фильмы (WEB-DL 720p, 1080p) [ 13.43 GB ] Король вне закона / Outlaw King [2018 биография история WEBRip 1080p] + [MVO] killermax2013 Скачать
2 | 0
Фильмы (WEB-DL 720p, 1080p) [ 13.21 GB ] Король вне закона / Outlaw King [2018 биография история WEBRip 1080p] MVO [NewStudio] +DUB [Невафильм] bober100 Скачать
2 | 0
Фильмы (WEB-DL 720p, 1080p) [ 3.19 GB ] Король вне закона / Outlaw King [2018 биография история WEBRip 720p] DUB [Невафильм] bober100 Скачать
7 | 0
Фильмы 2018 [DVDrip, WEB-DLRip, HDrip] (DUB, MVO) [ 721 MB ] Король вне закона / Outlaw King [2018 биография история WEBRip "Невафильм"] coc900 Скачать
3 | 0
Ultra HD (UHD: 2K, 4K, 8K) — видео сверхвысокой чёткости [ 16 GB ] Король вне закона / Outlaw King [2018 биография UHD WEBRip 2160p] DUB [Невафильм] sheker187 Скачать
1 | 0

28-11-2019 20:33  

Отключить всю рекламу на сайте

10-11-2018 21:42 Король вне закона Скачать торрент  

Предатель уильяма воллеса... Как же он разочаровал в храбром сердце))pb.wtf



11-11-2018 04:29 Король вне закона Скачать торрент  

недавно смотрел черный 47 про Ирландию теперь про Шотландиюpb.wtf



11-11-2018 17:12 Король вне закона Скачать торрент  

10 баловpb.wtf



23-01-2019 18:06 Король вне закона Скачать торрент  

Спасибо заценим)pb.wtf



    Дорогой пользователь! Огромная просьба, поблагодарите релизера, оцените раздачу и оставьте свои комментарий, если Вы скачали Король вне закона через торрент бесплатно! Внесите свою лепту в развитие PiratBit!
    Комментировать посты могут только пользователи прошедшие не сложную регистрацию
    Показать сообщения:    

    Король вне закона через торрент
    Скачать бесплатно Король вне закона
    Король вне закона скачать торрент
    Король вне закона смотреть онлайн
    Cкачать фильм Король вне закона бесплатно
    Король вне закона скачать торрент в хорошем качестве
    Король вне закона смотреть онлайн бесплатно в хорошем качестве


    Вы не можете начинать темы
    Вы не можете отвечать на сообщения
    Вы не можете редактировать свои сообщения
    Вы не можете удалять свои сообщения
    Вы не можете голосовать в опросах
    Вы не можете прикреплять файлы к сообщениям
    Вы можете скачивать файлы