Мега распродажа FORZA HORIZON 4 ULTIMATE+ВСЕ DLC+ОНЛАЙН всего за 499р. 349 руб. (супер цена). Внимание количество ограничено!!!

Лицензия

30

iTunes

мы

iTunes

1

1 сезон

Чернобыль

1 сезон

Ральф против интернета

MVO

Покемон. Детектив Пикачу

8 сезон

Игра престолов

iTunes

1+1

ИГРА 18+

pack

ВАЖНО

!!Акция!!

Alien_RageХит недели

RePack

Resident Evil 21
pack

RePack

Metro:Exodus

!!Акция!!

Alien_Rage

RePack

fifa19

RePack

Assassins Creed: Odyssey

RePack

NEED FOR SPEED™ PAYBACK

3 сезон

9 сезон

Бесстыжие 9 сезон

Все сериалы

все сериалы на PB.wtf

RePack

FAR CRY 5
Ребята, катастрофически не хватает 2730р. для оплаты серверов за МАЙ (всвязи с блокировками трафик упал в 3 раза), 1-2р., выручайте.
  

Маленькая барабанщица / The Little Drummer Girl / Сезон: 1 / Серии 1-6 из 6 (Пак Чхан Ук / Park Chan-wook) [2018, триллер, драма, WEB-DLRip] [MVO] (LostFilm) pb.wtf

Маленькая барабанщица через торрент pb.wtf

Размер: 4.26 GB | Добавлен: 6 мес. назад | Торрент скачан:34 раза
Скачать  

10-11-2018 18:01 Маленькая барабанщица Скачать торрент  

Маленькая барабанщица | The Little Drummer Girl
Год выпуска: 2018
Страна: Великобритания, США
Жанр: Триллер, драма
Продолжительность: ~00:56:00
Перевод: Профессиональный (многоголосый закадровый) | LostFilm
Режиссёр: Пак Чхан-ук / Park Chan-wook
В ролях: Флоренс Пью, Александр Скарсгард, Майкл Шеннон, Майкл Мошонов, Симона Браун, Клер Холман, Кейт Самптер, Геннадий Флейшер, Амир Хури, Катарина Шюттлер и др.
Описание: Будучи на отдыхе в Греции, молодая актриса Чарли знакомится с Беккером. Довольно скоро выясняется, что мужчиной движет не любовный интерес. Он — офицер израильской разведки, который втягивает Чарли в смертельно опасную борьбу западных спецслужб с терроризмом в Европе и на Ближнем Востоке.
скриншот  

Качество: WEB-DLRip
Формат: AVI
Видео: XviD, 720x400, 25,000 кадров/сек, ~1500 Кбит/сек
Аудио Rus: MP3, 48 kHz, 2 ch, 128 kbps | LostFilm
Аудио Eng: MP3, 48 kHz, 2 ch, 128 kbps
Субтитры: Отсутствуют
Рип: DriverV

Общее
Полное имя : D:\Маленькая барабанщица (сезон 1) The Little Drummer Girl (2018) WEB-DLRip - LostFilm\The.Little.Drummer.Girl.S01E01.WEB-DLRip.Rus.Eng.DV.LostFilm.avi
Формат : AVI
Формат/Информация : Audio Video Interleave
Размер файла : 712 Мбайт
Продолжительность : 55 м. 58 с.
Общий поток : 1779 Кбит/сек
Название фильма : The.Little.Drummer.Girl.S01E01.WEB-DLRip.Rus.Eng.DV.LostFilm / NNM-Club
Программа кодирования : VirtualDubModRus 1.5.10.2 (build 2542/release)
Библиотека кодирования : VirtualDubMod build 2542/release

Видео
Идентификатор : 0
Формат : MPEG-4 Visual
Профиль формата : Advanced Simple@L5
Настройки формата : BVOP2
Параметр BVOP формата : 2
Параметр QPel формата : Нет
Параметр GMC формата : Без точки перехода
Параметр матрицы формата : Default (H.263)
Идентификатор кодека : XVID
Идентификатор кодека/Подсказка : XviD
Продолжительность : 55 м. 58 с.
Битрейт : 1509 Кбит/сек
Ширина : 720 пикселей
Высота : 400 пикселей
Соотношение сторон : 16:9
Частота кадров : 25,000 кадров/сек
Цветовое пространство : YUV
Субдискретизация насыщенности : 4:2:0
Битовая глубина : 8 бит
Тип развёртки : Прогрессивная
Метод сжатия : С потерями
Бит/(Пиксели*Кадры) : 0.210
Размер потока : 604 Мбайт (85%)
Заголовок : Rip by DriverV / NNM-Club
Библиотека кодирования : XviD 67

Аудио #1
Идентификатор : 1
Формат : MPEG Audio
Версия формата : Version 1
Профиль формата : Layer 3
Настройки формата : Joint stereo / MS Stereo
Идентификатор кодека : 55
Идентификатор кодека/Подсказка : MP3
Продолжительность : 55 м. 58 с.
Вид битрейта : Постоянный
Битрейт : 128 Кбит/сек
Каналы : 2 канала
Частота : 48,0 КГц
Метод сжатия : С потерями
Размер потока : 51,2 Мбайт (7%)
Выравнивание : Соединение по промежуткам
Продолжительность промежутка : 40 мс. (1,00 видеокадр)
Время предзагрузки промежутка : 504 мс.

Аудио #2
Идентификатор : 2
Формат : MPEG Audio
Версия формата : Version 1
Профиль формата : Layer 3
Настройки формата : Joint stereo / MS Stereo
Идентификатор кодека : 55
Идентификатор кодека/Подсказка : MP3
Продолжительность : 55 м. 58 с.
Вид битрейта : Постоянный
Битрейт : 128 Кбит/сек
Каналы : 2 канала
Частота : 48,0 КГц
Метод сжатия : С потерями
Размер потока : 51,2 Мбайт (7%)
Выравнивание : Соединение по промежуткам
Продолжительность промежутка : 40 мс. (1,00 видеокадр)
Время предзагрузки промежутка : 504 мс.

скриншот  скриншот  скриншот  

Внимание! Раздача ведётся путём добавления новых серий; при каждом добавлении создаётся новый торрент. Чтобы начать докачку новой серии, пользователям необходимо сделать следующее:
(1) остановить скачивание,
(2) удалить старый торрент у себя из клиента (старые серии удалять не надо),
(3) скачать новый торрент и запустить его у себя в клиенте вместо старого, при этом указать клиенту путь в старую папку куда и должно происходить скачивание новых серий.

Ваш клиент при этом должен произвести хеширование (проверку) старой папки (если не производит сам - помогите ему сделать это), и будет докачивать только те серии которых у вас ещё нет. Старые серии при этом не удаляются, а продолжают раздаваться!

Eсли вы уже удалили старые серии, то предотвратить повторную закачку старых серий можно, отжав галочку в соответствующих местах при запуске нового торрента. По возможности, желательно не удалять старые серии как можно дольше чтобы релизёр не столько продолжал раздавать старые серии, а смог сконцентрироваться на новых.
pb.wtf



Скачать Маленькая барабанщица через торрент http://i98.fastpic.ru/big/2018/1104/1e/2639b47808421dd5a67bf1aa20e67b1e.png Скачать фильм Маленькая барабанщица через торрент бесплантно в хорошем качестве Описание: Будучи на отдыхе в Греции, молодая актриса Чарли знакомится с Беккером. Довольно скоро выясняется, что мужчиной движет не ... 10 10 1
Торрент: Зарегистрирован [2018-12-02 09:09] · скачан: 34 раз
Статус: √ проверено
Размер: 4.26 GB
Как cкачать? Как скачать Маленькая барабанщица через торрент | qTorrent

% Раздел Тема Автор DL S | L
Зарубежные сериалы [ 27.71 GB ] Маленькая барабанщица / The Little Drummer Girl / Сезон: 1 / Серии 1-6 из 6 [2018 WEB-DL 1080p] [DVO] killermax2013 Скачать
1 | 0
Видео для КПК и Смартфонов [ 1.28 GB ] Маленькая барабанщица / The Little Drummer Girl / Сезон: 1 / Серии 1-6 из 6 [2018 WEB-DLRip КПК] MVO [LostFilm] sergey82 Скачать
1 | 0
Зарубежные сериалы [ 5.73 GB ] Маленькая барабанщица / The Little Drummer Girl / Сезон: 1 / Серии 1-6 из 6 [2018 WEB-DLRip] [MVO] killermax2013 Скачать
1 | 0
Зарубежные сериалы [ 25.94 GB ] Маленькая барабанщица / The Little Drummer Girl / Сезон: 1 / Серии: 1-6 из 6 [2018 WEBRip 1080p] [MVO] killermax2013 Скачать
2 | 0
Зарубежные сериалы [ 25.94 GB ] Маленькая барабанщица / The Little Drummer Girl / Сезон: 1 / Серии 1-6 из 6 [2018 WEB-DL 1080p] [MVO] killermax2013 Скачать
1 | 0
Зарубежные сериалы [ 8.97 GB ] Маленькая барабанщица / The Little Drummer Girl / Сезон: 1 / Серии 1-6 из 6 [2018 WEB-DL 720p] [DVO] killermax2013 Скачать
1 | 0
Зарубежные сериалы [ 7.14 GB ] Маленькая барабанщица / The Little Drummer Girl / Сезон: 1 / Серии 1-6 из 6 [2018 WEB-DLRip 720p] [MVO] killermax2013 Скачать
1 | 0


>> Регистрируемся здесь <<






Отзывы и комментарии о схеме читаем и пишем здесь: ---> Отзывы и комментарии о схеме

Новые благодарочки в телеграм довольных пользователей:
скриншот   скриншот   скриншот   скриншот   скриншот
    Дорогой пользователь! Огромная просьба, поблагодарите релизера, оцените раздачу и оставьте свои комментарий, если Вы скачали Маленькая барабанщица через торрент бесплатно! Внесите свою лепту в развитие PiratBit!
    Комментировать посты могут только пользователи прошедшие не сложную регистрацию
    Показать сообщения:    

    Маленькая барабанщица через торрент
    Скачать бесплатно Маленькая барабанщица
    Маленькая барабанщица скачать торрент
    Маленькая барабанщица смотреть онлайн
    Cкачать фильм Маленькая барабанщица бесплатно
    Маленькая барабанщица скачать торрент в хорошем качестве
    Маленькая барабанщица смотреть онлайн бесплатно в хорошем качестве


    Вы не можете начинать темы
    Вы не можете отвечать на сообщения
    Вы не можете редактировать свои сообщения
    Вы не можете удалять свои сообщения
    Вы не можете голосовать в опросах
    Вы не можете прикреплять файлы к сообщениям
    Вы можете скачивать файлы