2 сезон

iTunes

MVO

1

2 сезон

iTunes

iTunes

1 сезон

RePack

30

Новинка

ВАЖНО

ИГРА 18+

pack

RePack

MK11
pack

Легкие деньги

RePack

jed

RePack

fifa19

RePack

RDR2

RePack

NEED FOR SPEED™ PAYBACK

4 сезон

9 сезон

Бесстыжие 9 сезон

Все сериалы

все сериалы на PB.wtf

RePack

FAR CRY 5

Anonymous, доброе утро, мы не успеваем собрать деньги на оплату серверов за декабрь и январь, помогите нам пожалуйста в это трудное время. В качестве благодарности мы отключим Вам всю рекламу на сайте (укажите свой ник в строку Ваше имя)!

×
  
Magnet ссылка

Рэмбо: Первая кровь / First Blood (Тед Котчефф) [1982, боевик, драма, приключения, UHD BDRemux 2160p] 2xMVO + 5xAVO pb.wtf

Рэмбо: Первая кровь через торрент pb.wtf

Раздают: 2 [ 8 KB/s ]
Размер: 48.72 GB | Добавлен: 2 года 2 мес. назад | Торрент скачан:92 раза
Скачать  

11-11-2018 10:31 Рэмбо: Первая кровь Скачать торрент  

Рэмбо: Первая кровь / First Blood

Год выпуска: 1982
Страна: США
Жанр: боевик, драма, приключения
Продолжительность: 01:33:25
Перевод: Профессиональный многоголосый, авторский
Субтитры: Русские, английские
Режиссер: Тед Котчефф
В ролях:

Сильвестр Сталлоне (Rambo), Ричард Кренна (Trautman), Брайан Деннехи (Teasle), Билл МакКинни (Kern), Джек Старретт (Galt), Майкл Тэлботт (Balford), Крис Малки (Ward), Джон МакЛиам (Orval), Альф Хамфриз (Lester), Дэвид Карузо (Mitch), Дэвид Л. Кроули (Shingleton), Дон Маккэй (Preston)
Описание:
Он - эксперт. Эксперт по оружию, ножам и собственному телу. Он человек, специально обученный не замечать боль и погодные условия. На войне он был героем, а на родине он никому не нужен. Неспособный приспособиться к мирной жизни Рэмбо путешествует по стране, но его задерживает провинциальный шериф, ненавидящий бродяг. Попав в тюрьму и вкусив унижений со стороны полиции, Рэмбо объявляет войну беспределу официальных структур и главе местной полиции лично.
Рейтинг:

MPAA: R - Лицам до 17 лет обязательно присутствие взрослого
Качество: UHD BDRemux 2160p
Формат: MKV
Видео: HEVC HDR, 64.7 Mбит/с, 3840x2160, 24.000 кадр/с
Аудио №1: Русский (DTS, 6 ch, 755 Кбит/с) / Профессиональный многоголосый (DVD R5 / CP Digital)
Аудио №2: Русский (AC3, 6 ch, 384 Кбит/с) / Профессиональный многоголосый (DVD Киномания)
Аудио №3: Русский (AC3, 6 ch, 448 Кбит/с) / Авторский (А.Гаврилов DVD Киномания)
Аудио №4: Русский (AC3, 6 ch, 448 Кбит/с) / Авторский (В.Завгородний)
Аудио №5: Русский (DTS, 6 ch, 1510 Кбит/с) / Авторский (В.Горчаков)
Аудио №6: Русский (DTS, 6 ch, 1510 Кбит/с) / Авторский (Г.Либергал)
Аудио №7: Русский (DTS, 6 ch, 1510 Кбит/с) / Авторский (Ю.Живов)
Аудио №8: Английский (DTS-HD MA, 6 ch, 3407 Кбит/с)
Навигация по главам: есть
General
Unique ID : 150056672731369322341242741461144879064 (0x70E3DD2AF71347CD005D892A2A40BFD8)
Complete name : C:UsersPublicVideosSample VideosFilmyFirst.Blood.1982.BDRemux.2160p.HDR.MediaClub.mkv
Format : Matroska
Format version : Version 4
File size : 48.7 GiB
Duration : 1 h 33 min
Overall bit rate mode : Variable
Overall bit rate : 74.7 Mb/s
Encoded date : UTC 2018-11-11 09:15:39
Writing application : mkvmerge v28.2.0 ('The Awakening') 64-bit
Writing library : libebml v1.3.6 + libmatroska v1.4.9
Cover : Yes
Attachments : cover.jpg

Video
ID : 1
Format : HEVC
Format/Info : High Efficiency Video Coding
Commercial name : HDR10
Format profile : Main 10@L5.1@High
Codec ID : V_MPEGH/ISO/HEVC
Duration : 1 h 33 min
Bit rate : 64.7 Mb/s
Width : 3 840 pixels
Height : 2 160 pixels
Display aspect ratio : 16:9
Frame rate mode : Constant
Frame rate : 24.000 FPS
Color space : YUV
Chroma subsampling : 4:2:0 (Type 2)
Bit depth : 10 bits
Bits/(Pixel*Frame) : 0.325
Stream size : 42.2 GiB (87%)
Title : BDRemux.2160p.HDR by Silverok
Writing library : ATEME Titan File 3.8.22 (4.8.22.0)
Default : Yes
Forced : No
Color range : Limited
Color primaries : BT.2020
Transfer characteristics : PQ
Matrix coefficients : BT.2020 non-constant
Mastering display color primaries : Display P3
Mastering display luminance : min: 0.0001 cd/m2, max: 1000 cd/m2
Maximum Content Light Level : 479 cd/m2
Maximum Frame-Average Light Level : 433 cd/m2

Audio #1
ID : 2
Format : DTS
Format/Info : Digital Theater Systems
Codec ID : A_DTS
Duration : 1 h 33 min
Bit rate mode : Constant
Bit rate : 755 kb/s
Channel(s) : 6 channels
Channel layout : C L R Ls Rs LFE
Sampling rate : 48.0 kHz
Frame rate : 93.750 FPS (512 SPF)
Bit depth : 24 bits
Compression mode : Lossy
Stream size : 503 MiB (1%)
Title : Профессиональный многоголосый (DVD R5. CP Digital)
Language : Russian
Default : Yes
Forced : No

Audio #2
ID : 3
Format : AC-3
Format/Info : Audio Coding 3
Commercial name : Dolby Digital
Codec ID : A_AC3
Duration : 1 h 33 min
Bit rate mode : Constant
Bit rate : 384 kb/s
Channel(s) : 6 channels
Channel layout : L R C LFE Ls Rs
Sampling rate : 48.0 kHz
Frame rate : 31.250 FPS (1536 SPF)
Bit depth : 16 bits
Compression mode : Lossy
Stream size : 256 MiB (1%)
Title : Профессиональный многоголосый (DVD Киномания)
Language : Russian
Service kind : Complete Main
Default : No
Forced : No

Audio #3
ID : 4
Format : AC-3
Format/Info : Audio Coding 3
Commercial name : Dolby Digital
Codec ID : A_AC3
Duration : 1 h 33 min
Bit rate mode : Constant
Bit rate : 448 kb/s
Channel(s) : 6 channels
Channel layout : L R C LFE Ls Rs
Sampling rate : 48.0 kHz
Frame rate : 31.250 FPS (1536 SPF)
Bit depth : 16 bits
Compression mode : Lossy
Stream size : 298 MiB (1%)
Title : Авторский (Андрей Гаврилов DVD Киномания)
Language : Russian
Service kind : Complete Main
Default : No
Forced : No

Audio #4
ID : 5
Format : AC-3
Format/Info : Audio Coding 3
Commercial name : Dolby Digital
Codec ID : A_AC3
Duration : 1 h 33 min
Bit rate mode : Constant
Bit rate : 448 kb/s
Channel(s) : 6 channels
Channel layout : L R C LFE Ls Rs
Sampling rate : 48.0 kHz
Frame rate : 31.250 FPS (1536 SPF)
Bit depth : 16 bits
Compression mode : Lossy
Stream size : 298 MiB (1%)
Title : Авторский (Владимир Завгородний)
Language : Russian
Service kind : Complete Main
Default : No
Forced : No

Audio #5
ID : 6
Format : DTS
Format/Info : Digital Theater Systems
Codec ID : A_DTS
Duration : 1 h 33 min
Bit rate mode : Constant
Bit rate : 1 510 kb/s
Channel(s) : 6 channels
Channel layout : C L R Ls Rs LFE
Sampling rate : 48.0 kHz
Frame rate : 93.750 FPS (512 SPF)
Bit depth : 24 bits
Compression mode : Lossy
Stream size : 1 006 MiB (2%)
Title : Авторский (Василий Горчаков)
Language : Russian
Default : No
Forced : No

Audio #6
ID : 7
Format : DTS
Format/Info : Digital Theater Systems
Codec ID : A_DTS
Duration : 1 h 33 min
Bit rate mode : Constant
Bit rate : 1 510 kb/s
Channel(s) : 6 channels
Channel layout : C L R Ls Rs LFE
Sampling rate : 48.0 kHz
Frame rate : 93.750 FPS (512 SPF)
Bit depth : 24 bits
Compression mode : Lossy
Stream size : 1 006 MiB (2%)
Title : Авторский (Григорий Либергал)
Language : Russian
Default : No
Forced : No

Audio #7
ID : 8
Format : DTS
Format/Info : Digital Theater Systems
Codec ID : A_DTS
Duration : 1 h 33 min
Bit rate mode : Constant
Bit rate : 1 510 kb/s
Channel(s) : 6 channels
Channel layout : C L R Ls Rs LFE
Sampling rate : 48.0 kHz
Frame rate : 93.750 FPS (512 SPF)
Bit depth : 24 bits
Compression mode : Lossy
Stream size : 1 006 MiB (2%)
Title : Авторский (Юрий Живов)
Language : Russian
Default : No
Forced : No

Audio #8
ID : 9
Format : DTS XLL
Format/Info : Digital Theater Systems
Commercial name : DTS-HD Master Audio
Codec ID : A_DTS
Duration : 1 h 33 min
Bit rate mode : Variable
Bit rate : 3 407 kb/s
Channel(s) : 6 channels
Channel layout : C L R Ls Rs LFE
Sampling rate : 48.0 kHz
Frame rate : 93.750 FPS (512 SPF)
Bit depth : 24 bits
Compression mode : Lossless
Stream size : 2.22 GiB (5%)
Language : English
Default : No
Forced : No

Text #1
ID : 10
Format : UTF-8
Codec ID : S_TEXT/UTF8
Codec ID/Info : UTF-8 Plain Text
Duration : 1 h 28 min
Bit rate : 59 b/s
Count of elements : 859
Stream size : 38.6 KiB (0%)
Title : Full
Language : Russian
Default : No
Forced : No

Text #2
ID : 11
Format : UTF-8
Codec ID : S_TEXT/UTF8
Codec ID/Info : UTF-8 Plain Text
Duration : 1 h 26 min
Bit rate : 47 b/s
Count of elements : 778
Stream size : 30.0 KiB (0%)
Title : Full
Language : English
Default : No
Forced : No

Menu
00:00:00.000 : en:Main Credits
00:04:59.674 : en:Served Together
00:09:53.843 : en:The Law
00:17:36.555 : en:Concealed Weapon
00:23:19.481 : en:"Your Name?"
00:30:46.427 : en:Fingerprints
00:36:53.920 : en:Escape
00:42:11.946 : en:Tailing Rambo
00:48:37.539 : en:Fleeing Justice
00:53:55.273 : en:Free Fall
01:00:01.431 : en:War Hero
01:08:01.744 : en:Decoy
01:13:48.006 : en:Weakening the Enemy
01:17:42.366 : en:Colonel Samuel Trautman
01:22:46.544 : en:Defuse the Situation
01:29:44.337 : en:Drew First Blood
01:33:16.382 : en:No Shooting
pb.wtf



Скачать Рэмбо: Первая кровь через торрент https://b.radikal.ru/b13/1811/16/0d26fcb5da8a.jpg Скачать фильм Рэмбо: Первая кровь через торрент бесплантно в хорошем качестве Описание: Он - эксперт. Эксперт по оружию, ножам и собственному телу. Он человек, специально обученный не замечать боль и погодные условия. ... 8.7 10 7
Info! Золотая раздача, скачанное не засчитывается.
Торрент: Зарегистрирован [2018-11-11 10:31] · скачан: 92 раз
Статус: √ проверено
Размер: 48.72 GB
Как cкачать? Как скачать Рэмбо: Первая кровь через торрент | UTorrent

% Раздел Тема Автор DL S | L
Ultra HD (UHD: 2K, 4K, 8K) — видео сверхвысокой чёткости [ 67.98 GB ] Рэмбо: Первая кровь / First Blood [1982 UHD Blu-ray 2160p] 5xMVO + 8xAVO + VO sheker187 Скачать
1 | 0
Ultra HD (UHD: 2K, 4K, 8K) — видео сверхвысокой чёткости [ 50.22 GB ] Рэмбо: Первая кровь 2 / Rambo: First Blood Part II [1985 UHD BDRemux 2160p] 3xMVO + 5xAVO sheker187 Скачать
1 | 0

28-11-2019 20:33  

Отключить всю рекламу на сайте

11-11-2018 10:39 Рэмбо: Первая кровь Скачать торрент  

исторический фильм,тогда казалось что и правда в одиночку можно целую войну устроитьpb.wtf



    Дорогой пользователь! Огромная просьба, поблагодарите релизера, оцените раздачу и оставьте свои комментарий, если Вы скачали Рэмбо: Первая кровь через торрент бесплатно! Внесите свою лепту в развитие PiratBit!
    Комментировать посты могут только пользователи прошедшие не сложную регистрацию
    Показать сообщения:    

    Рэмбо: Первая кровь через торрент
    Скачать бесплатно Рэмбо: Первая кровь
    Рэмбо: Первая кровь скачать торрент
    Рэмбо: Первая кровь смотреть онлайн
    Cкачать фильм Рэмбо: Первая кровь бесплатно
    Рэмбо: Первая кровь скачать торрент в хорошем качестве
    Рэмбо: Первая кровь смотреть онлайн бесплатно в хорошем качестве


    Вы не можете начинать темы
    Вы не можете отвечать на сообщения
    Вы не можете редактировать свои сообщения
    Вы не можете удалять свои сообщения
    Вы не можете голосовать в опросах
    Вы не можете прикреплять файлы к сообщениям
    Вы можете скачивать файлы