Ссылка на приватное зеркало нашего сайта всего за 1$. Внимание количество ограничено!!!

2 сезон

iTunes

1 сезон

1

2 сезон

2 сезон

iTunes

1 сезон

RePack

30

Ultimate

ВАЖНО

ИГРА 18+

pack

RePack

MK11
pack

Забери бонус

RePack

jed

!!Акция!!

Alien_Rage

RePack

fifa19

RePack

Assassins Creed: Odyssey

RePack

NEED FOR SPEED™ PAYBACK

4 сезон

9 сезон

Бесстыжие 9 сезон

Все сериалы

все сериалы на PB.wtf

RePack

FAR CRY 5
  

Стартап / StartUp / Сезон: 3 / Серия: 1-10 из 10 (Бен Кетаи) [2018, Триллер, криминал, WEBRip 720p] [DVO] (Gears Media) pb.wtf

Стартап через торрент pb.wtf

Размер: 8.46 GB | Добавлен: 2 года назад | Торрент скачан:22 раза
Скачать  

11-11-2018 15:29 Стартап Скачать торрент  

Стартап / StartUp Год выпуска: 2018
Страна: США
Жанр: Триллер, криминал
Продолжительность: ~00:45:00
Перевод: Профессиональный (двухголосый закадровый) Gears Media

Режиссёр: Бен Кетаи

В ролях: Мартин Фриман, Адам Броди, Эди Гатеги, Кристен Ариза, Келвин Харрисон, Альфредо Де Куэсада, Джоселин Донахью

Описание:Действие картины разворачивается в США, в Майами. В сериале Мартин Фримен играет Фила Раска, агента ФБР, о котором известно, что он "применяет силу, когда ему приходится решать участь тех, кто находится в его власти - причем не всегда оправданно". Одним из таких людей, попавших в поле зрения этого прирожденного детектива, стал Ник Талман, талантливый финансист, работающий в консалтинговой компании в Майами. Но объектом интереса для Раска является не сам Ник, а его состоятельный отец, до поры до времени занимавшийся нелегальной деятельностью, а потом внезапно исчезнувший из общественного поля зрения...

rating

Сэмпл: http://multi-up.com/1214039

Качество: WEBRip 720p
Формат: MKV
Видео: X264, 1280x720 at 23.976 fps, ~2300 kbps avg
Аудио 1: Russian, AC3, 48 kHz, 2 ch, 384 kbps
Аудио 2: English, AAC, 48 kHz, 2 ch, 127 kbps
Субтитры: нет
Format : Matroska
Format version : Version 4
File size : 902 MiB
Duration : 44 min 51 s
Overall bit rate : 2 812 kb/s
Encoded date : UTC 2018-11-05 23:21:09
Writing application : mkvmerge v23.0.0 ('The Bride Said No') 64-bit
Writing library : libebml v1.3.6 + libmatroska v1.4.9

Video
ID : 1
Format : AVC
Format/Info : Advanced Video Codec
Format profile : Main@L3.1
Format settings : CABAC / 2 Ref Frames
Format settings, CABAC : Yes
Format settings, ReFrames : 2 frames
Codec ID : V_MPEG4/ISO/AVC
Duration : 44 min 51 s
Bit rate : 2 372 kb/s
Width : 1 280 pixels
Height : 720 pixels
Display aspect ratio : 16:9
Frame rate mode : Constant
Frame rate : 23.976 (24000/1001) FPS
Color space : YUV
Chroma subsampling : 4:2:0
Bit depth : 8 bits
Scan type : Progressive
Bits/(Pixel*Frame) : 0.107
Stream size : 738 MiB (82%)
Writing library : x264 core 148 r2579M 73ae2d1
Encoding settings : cabac=1 / ref=2 / deblock=1:0:0 / analyse=0x1:0x111 / me=hex / subme=2 / psy=1 / psy_rd=1.00:0.00 / mixed_ref=0 / me_range=16 / chroma_me=1 / trellis=0 / 8x8dct=0 / cqm=0 / deadzone=21,11 / fast_pskip=1 / chroma_qp_offset=0 / threads=1 / lookahead_threads=1 / sliced_threads=0 / nr=250 / decimate=1 / interlaced=0 / bluray_compat=0 / stitchable=1 / constrained_intra=0 / bframes=0 / weightp=1 / keyint=250 / keyint_min=25 / scenecut=40 / intra_refresh=0 / rc_lookahead=10 / rc=2pass / mbtree=1 / bitrate=2372 / ratetol=1.0 / qcomp=0.60 / qpmin=5 / qpmax=69 / qpstep=4 / cplxblur=20.0 / qblur=0.5 / ip_ratio=1.40 / aq=1:1.00
Language : English
Default : Yes
Forced : No

Audio #1
ID : 2
Format : AC-3
Format/Info : Audio Coding 3
Commercial name : Dolby Digital
Codec ID : A_AC3
Duration : 44 min 51 s
Bit rate mode : Constant
Bit rate : 384 kb/s
Channel(s) : 2 channels
Channel layout : L R
Sampling rate : 48.0 kHz
Frame rate : 31.250 FPS (1536 SPF)
Bit depth : 16 bits
Compression mode : Lossy
Delay relative to video : -42 ms
Stream size : 123 MiB (14%)
Title : Gears Media
Language : Russian
Service kind : Complete Main
Default : Yes
Forced : Yes

Audio #2
ID : 3
Format : AAC LC SBR
Format/Info : Advanced Audio Codec Low Complexity with Spectral Band Replication
Commercial name : HE-AAC
Format settings : Implicit
Codec ID : A_AAC-2
Duration : 44 min 51 s
Bit rate : 127 kb/s
Channel(s) : 2 channels
Channel layout : L R
Sampling rate : 48.0 kHz
Frame rate : 23.438 FPS (2048 SPF)
Compression mode : Lossy
Delay relative to video : -42 ms
Stream size : 40.7 MiB (5%)
Language : English
Default : No
Forced : No
скриншот  скриншот  скриншот  
pb.wtf



Скачать Стартап через торрент http://i98.fastpic.ru/big/2018/1106/c0/2b89e3de2a76b610c484c121221581c0.jpg Скачать фильм Стартап через торрент бесплантно в хорошем качестве Описание:Действие картины разворачивается в США, в Майами. В сериале Мартин Фримен играет Фила Раска, агента ФБР, о котором известно, что ... 7 10 2
Торрент: Зарегистрирован [2018-11-11 15:29] · скачан: 22 раз
Статус: √ проверено
Размер: 8.46 GB
Как cкачать? Как скачать Стартап через торрент | qTorrent

% Раздел Тема Автор DL S | L
Зарубежные сериалы [ 32.67 GB ] Стартап / StartUp / Сезон: 3 / Серии: 1-10 из 10 [2018 WEBRip 1080p] [MVO] killermax2013 Скачать
1 | 0
Зарубежные сериалы [ 5.18 GB ] Стартап / StartUp / Сезон: 3 / Серия: 1-10 из 10 [2018 WEBRip] [MVO] killermax2013 Скачать
1 | 0
Зарубежные сериалы [ 18.88 GB ] Стартап / StartUp / Сезон: 3 / Серия: 1-10 из 10 [2018 WEBRip 1080p] [MVO] killermax2013 Скачать
1 | 0

28-11-2019 20:33  

Отключить всю рекламу на сайте

    Дорогой пользователь! Огромная просьба, поблагодарите релизера, оцените раздачу и оставьте свои комментарий, если Вы скачали Стартап через торрент бесплатно! Внесите свою лепту в развитие PiratBit!
    Комментировать посты могут только пользователи прошедшие не сложную регистрацию
    Показать сообщения:    

    Стартап через торрент
    Скачать бесплатно Стартап
    Стартап скачать торрент
    Стартап смотреть онлайн
    Cкачать фильм Стартап бесплатно
    Стартап скачать торрент в хорошем качестве
    Стартап смотреть онлайн бесплатно в хорошем качестве


    Вы не можете начинать темы
    Вы не можете отвечать на сообщения
    Вы не можете редактировать свои сообщения
    Вы не можете удалять свои сообщения
    Вы не можете голосовать в опросах
    Вы не можете прикреплять файлы к сообщениям
    Вы можете скачивать файлы