Ссылка на приватное зеркало нашего сайта всего за 1$. Внимание количество ограничено!!!

2 сезон

iTunes

1 сезон

1

iTunes

iTunes

iTunes

1 сезон

RePack

30

ИГРА 18+

pack

ВАЖНО

!!Акция!!

Alien_RageХит недели

RePack

MK11
pack

Забери бонус

RePack

jed

!!Акция!!

Alien_Rage

RePack

fifa19

RePack

Assassins Creed: Odyssey

RePack

NEED FOR SPEED™ PAYBACK

4 сезон

9 сезон

Бесстыжие 9 сезон

Все сериалы

все сериалы на PB.wtf

RePack

FAR CRY 5
  

Беглянка / Серий: 1 - 4 из 4 (Алина Чеботарева) [2018 г., мелодрама, WEB-DLRip] pb.wtf

Беглянка через торрент pb.wtf

Размер: 2.34 GB | Добавлен: 1 год 11 мес. назад | Торрент скачан:123 раза
Скачать  

11-11-2018 19:39 Беглянка Скачать торрент  

Беглянка
Год выпуска: 2018
Страна: Украина
Жанр: Мелодрама
Серий: 1 - 4 из 4
Продолжительность: ~ 00:46:00 серия

Режиссер: Алина Чеботарева



В ролях: Анна Миклош, Александр Никитин, Игорь Рубашкин, Дарья Творонович, Петр Ниневский, Алиса Лукшина, Ева Шевченко-Головко

Описание: Она пыталась убежать от обстоятельств, от беды, от себя… Даже не надеясь, что найдется тот, кто обнимет, поддержит и нежно шепнет: «Беглянка ты моя…». 36-летняя Анна - врач высшей категории. Случайно она стала свидетелем попытки убийства. И вынуждена бежать вместе с двумя детьми, куда глаза глядят… Без денег, вещей и документов. Авария и, в результате этого, травма плеча у сына, приводят Анну в небольшой провинциальный городок. А необходимость заработать денег, заставляет устроиться в местную больницу медсестрой. Как повлияют на жизнь ее семьи новые коллеги? Удастся ли Анне противостоять преступнику, который гонится за ней по пятам? И, наконец, появится ли в ее жизни тот, самый главный?..
Качество: WEB-DLRip
Формат: AVI
Видео кодек: XviD
Аудио кодек: AC3
Видео: XviD, ~ 1585 Кбит/с, 720x400
Аудио: Русский, AC3, 2 ch, 192 Кбит/с
Видео
Идентификатор : 0
Формат : MPEG-4 Visual
Профиль формата : Advanced Simple@L5
Параметр BVOP формата : 2
Параметр QPel формата : Нет
Параметр GMC формата : Без точки перехода
Параметр матрицы формата : Default (H.263)
Идентификатор кодека : XVID
Идентификатор кодека/Подсказка : XviD
Продолжительность : 46 м. 25 с.
Битрейт : 1585 Кбит/сек
Ширина : 720 пикселей
Высота : 400 пикселей
Соотношение сторон : 16:9
Частота кадров : 25,000 кадров/сек
Цветовое пространство : YUV
Субдискретизация насыщенности : 4:2:0
Битовая глубина : 8 бит
Тип развёртки : Прогрессивная
Метод сжатия : С потерями
Бит/(Пиксели*Кадры) : 0.220
Размер потока : 526 Мбайт (89%)
Библиотека кодирования : XviD 1.2.1 (UTC 2008-12-04)

Аудио
Идентификатор : 1
Формат : AC-3
Формат/Информация : Audio Coding 3
Расширение режима : CM (complete main)
Параметр Endianness формата : Big
Идентификатор кодека : 2000
Продолжительность : 46 м. 25 с.
Вид битрейта : Постоянный
Битрейт : 192 Кбит/сек
Каналы : 2 канала
Расположение каналов : Front: L R
Частота : 44,1 КГц
Частота кадров : 28,711 кадров/сек (1536 spf)
Битовая глубина : 16 бит
Метод сжатия : С потерями
Размер потока : 63,7 Мбайт (11%)
Выравнивание : Разделение по промежуткам
Продолжительность промежутка : 40 мс. (1,00 видеокадр)
Время предзагрузки промежутка : 500 мс.

скриншот   скриншот   скриншот   скриншот   скриншот  

pb.wtf



Скачать Беглянка через торрент http://pic1.kartinco.top/images/11/e3zgr.jpg Скачать фильм Беглянка через торрент бесплантно в хорошем качестве Описание: Она пыталась убежать от обстоятельств, от беды, от себя… Даже не надеясь, что найдется тот, кто обнимет, поддержит и нежно ... 10 10 4
Торрент: Зарегистрирован [2018-11-11 19:39] · скачан: 123 раз
Статус: √ проверено
Размер: 2.34 GB
Как cкачать? Как скачать Беглянка через торрент | qTorrent

% Раздел Тема Автор DL S | L
Наши сериалы [ 2.22 GB ] Беглянка / Сезон: 2 / Серии: 1-4 из 4 [2020 Мело WEB-DLRip] bober100 Скачать
1 | 0

28-11-2019 20:33  

Отключить всю рекламу на сайте

    Дорогой пользователь! Огромная просьба, поблагодарите релизера, оцените раздачу и оставьте свои комментарий, если Вы скачали Беглянка через торрент бесплатно! Внесите свою лепту в развитие PiratBit!
    Комментировать посты могут только пользователи прошедшие не сложную регистрацию
    Показать сообщения:    

    Беглянка через торрент
    Скачать бесплатно Беглянка
    Беглянка скачать торрент
    Беглянка смотреть онлайн
    Cкачать фильм Беглянка бесплатно
    Беглянка скачать торрент в хорошем качестве
    Беглянка смотреть онлайн бесплатно в хорошем качестве


    Вы не можете начинать темы
    Вы не можете отвечать на сообщения
    Вы не можете редактировать свои сообщения
    Вы не можете удалять свои сообщения
    Вы не можете голосовать в опросах
    Вы не можете прикреплять файлы к сообщениям
    Вы можете скачивать файлы