2 сезон

iTunes

MVO

1

2 сезон

iTunes

iTunes

1 сезон

RePack

30

Новинка

ВАЖНО

ИГРА 18+

pack

RePack

MK11
pack

Легкие деньги

RePack

jed

RePack

fifa19

RePack

RDR2

RePack

NEED FOR SPEED™ PAYBACK

4 сезон

9 сезон

Бесстыжие 9 сезон

Все сериалы

все сериалы на PB.wtf

RePack

FAR CRY 5

Anonymous, доброй ночи, мы не успеваем собрать деньги на оплату серверов за декабрь и январь, помогите нам пожалуйста в это трудное время. В качестве благодарности мы отключим Вам всю рекламу на сайте (укажите свой ник в строку Ваше имя)!

×
  
Magnet ссылка

Рэмбо: Первая кровь 2 / Rambo: First Blood Part II (Джордж П. Косматос) [1985, боевик, триллер, приключения, UHD BDRemux 2160p] 3xMVO + 5xAVO pb.wtf

Рэмбо: Первая кровь 2 через торрент pb.wtf

Размер: 50.22 GB | Добавлен: 2 года 2 мес. назад | Торрент скачан:45 раз
Скачать  

12-11-2018 01:35 Рэмбо: Первая кровь 2 Скачать торрент  

Рэмбо: Первая кровь 2 / Rambo: First Blood Part II«What you call hell, he calls home»
Год выпуска: 1985
Страна: США
Жанр: боевик, триллер, приключения, военный
Продолжительность: 01:35:55
Перевод: Профессиональный многоголосый, авторский
Субтитры: Русские, английские
Режиссер: Джордж П. Косматос
В ролях:

Сильвестр Сталлоне (Rambo), Ричард Кренна (Col. Samuel Trautman), Чарльз Нэпьер (Marshall Murdock), Стивен Беркофф (Lt. Col. Podovsky), Джулия Никсон-Соул (Co), Мартин Коув (Ericson), Джордж Чунг (Tay), Энди Вуд (Banks), Уильям Хент (Captain Vinh), Войо Горич (Sergeant Yushin), Дэна Ли (Captain Kinh), Баоан Коулмэн (Gunboat Captain)
Описание:
Джон Рэмбо отбывает наказание в тюрьме строгого режима. Он смирился со своей участью, но несмотря на свое положение, он продолжает чтить основные заповеди военного братства: верить напарнику, прикрывать его спину, отдать свою жизнь за него и свою страну. Когда полковник Траутман, бывший боевой командир Рэмбо предлагает ему отправиться во Вьетнам, на спецоперацию по спасению оставшихся в плену американских солдат, он не раздумывая соглашается.
Рейтинг:

MPAA: R - Лицам до 17 лет обязательно присутствие взрослого
Качество: UHD BDRemux 2160p
Формат: MKV
Видео: HEVC HDR, 64.2 Mбит/с, 3840x2160, 24.000 кадр/с
Аудио 1: Русский (AC3, 6 ch, 640 Кбит/с) / Профессиональный многоголосый (Позитив Мультимедия)
Аудио 2: Русский (DTS, 6 ch, 1510 Кбит/с) / Профессиональный многоголосый (Киномания)
Аудио 3: Русский (DTS, 2 ch, 755 Кбит/с) / Профессиональный многоголосый (CP Digital)
Аудио 4: Русский (DTS, 6 ch, 1510 Кбит/с) / Авторский (Дмитрий Пучков)
Аудио 5: Русский (DTS, 6 ch, 1510 Кбит/с) / Авторский (Юрий Живов)
Аудио 6: Русский (AC3, 2 ch, 224 Кбит/с) / Авторский (Василий Горчаков)
Аудио 7: Русский (AC3, 2 ch, 224 Кбит/с) / Авторский (Григорий Либергал)
Аудио 8: Русский (AC3, 2 ch, 224 Кбит/с) / Авторский (Сергей Кузнецов)
Навигация по главам: есть
General
Unique ID : 81504832763388008842372515346406831645 (0x3D51428275335F5C440C608EDFDDF61D)
Complete name : C:\Users\Public\Videos\Sample Videos\Filmy\Rambo.First.Blood.Part_II.1985.BDRemux.2160p.HDR.MediaClub.mkv
Format : Matroska
Format version : Version 4
File size : 50.2 GiB
Duration : 1 h 35 min
Overall bit rate mode : Variable
Overall bit rate : 74.9 Mb/s
Encoded date : UTC 2018-11-11 19:56:35
Writing application : mkvmerge v28.2.0 ('The Awakening') 64-bit
Writing library : libebml v1.3.6 + libmatroska v1.4.9
Cover : Yes
Attachments : cover.jpg

Video
ID : 1
Format : HEVC
Format/Info : High Efficiency Video Coding
Commercial name : HDR10
Format profile : Main 10@L5.1@High
Codec ID : V_MPEGH/ISO/HEVC
Duration : 1 h 35 min
Bit rate : 64.2 Mb/s
Width : 3 840 pixels
Height : 2 160 pixels
Display aspect ratio : 16:9
Frame rate mode : Constant
Frame rate : 24.000 FPS
Color space : YUV
Chroma subsampling : 4:2:0 (Type 2)
Bit depth : 10 bits
Bits/(Pixel*Frame) : 0.323
Stream size : 43.0 GiB (86%)
Title : BDRemux.2160p.HDR by Silverok
Writing library : ATEME Titan File 3.8.22 (4.8.22.0)
Default : Yes
Forced : No
Color range : Limited
Color primaries : BT.2020
Transfer characteristics : PQ
Matrix coefficients : BT.2020 non-constant
Mastering display color primaries : Display P3
Mastering display luminance : min: 0.0001 cd/m2, max: 1000 cd/m2
Maximum Content Light Level : 479 cd/m2
Maximum Frame-Average Light Level : 464 cd/m2

Audio #1
ID : 2
Format : AC-3
Format/Info : Audio Coding 3
Commercial name : Dolby Digital
Codec ID : A_AC3
Duration : 1 h 35 min
Bit rate mode : Constant
Bit rate : 640 kb/s
Channel(s) : 6 channels
Channel layout : L R C LFE Ls Rs
Sampling rate : 48.0 kHz
Frame rate : 31.250 FPS (1536 SPF)
Bit depth : 16 bits
Compression mode : Lossy
Stream size : 439 MiB (1%)
Title : Профессиональный многоголосый (Позитив Мультимедия)
Language : Russian
Service kind : Complete Main
Default : Yes
Forced : No

Audio #2
ID : 3
Format : DTS
Format/Info : Digital Theater Systems
Codec ID : A_DTS
Duration : 1 h 35 min
Bit rate mode : Constant
Bit rate : 1 510 kb/s
Channel(s) : 6 channels
Channel layout : C L R Ls Rs LFE
Sampling rate : 48.0 kHz
Frame rate : 93.750 FPS (512 SPF)
Bit depth : 24 bits
Compression mode : Lossy
Stream size : 1.01 GiB (2%)
Title : Профессиональный многоголосый (Киномания)
Language : Russian
Default : No
Forced : No

Audio #3
ID : 4
Format : DTS
Format/Info : Digital Theater Systems
Codec ID : A_DTS
Duration : 1 h 35 min
Bit rate mode : Constant
Bit rate : 755 kb/s
Channel(s) : 2 channels
Channel layout : C L R Ls Rs
Sampling rate : 48.0 kHz
Frame rate : 93.750 FPS (512 SPF)
Bit depth : 24 bits
Compression mode : Lossy
Stream size : 518 MiB (1%)
Title : Профессиональный многоголосый (CP Digital)
Language : Russian
Default : No
Forced : No

Audio #4
ID : 5
Format : DTS
Format/Info : Digital Theater Systems
Codec ID : A_DTS
Duration : 1 h 35 min
Bit rate mode : Constant
Bit rate : 1 510 kb/s
Channel(s) : 6 channels
Channel layout : L R
Sampling rate : 48.0 kHz
Frame rate : 93.750 FPS (512 SPF)
Bit depth : 24 bits
Compression mode : Lossy
Stream size : 1.01 GiB (2%)
Title : Авторский (Дмитрий Пучков)
Language : Russian
Default : No
Forced : No

Audio #5
ID : 6
Format : DTS
Format/Info : Digital Theater Systems
Codec ID : A_DTS
Duration : 1 h 35 min
Bit rate mode : Constant
Bit rate : 1 510 kb/s
Channel(s) : 6 channels
Channel layout : C L R Ls Rs LFE
Sampling rate : 48.0 kHz
Frame rate : 93.750 FPS (512 SPF)
Bit depth : 24 bits
Compression mode : Lossy
Stream size : 1.01 GiB (2%)
Title : Авторский (Юрий Живов)
Language : Russian
Default : No
Forced : No

Audio #6
ID : 7
Format : AC-3
Format/Info : Audio Coding 3
Commercial name : Dolby Digital
Codec ID : A_AC3
Duration : 1 h 35 min
Bit rate mode : Constant
Bit rate : 224 kb/s
Channel(s) : 2 channels
Channel layout : L R
Sampling rate : 48.0 kHz
Frame rate : 31.250 FPS (1536 SPF)
Bit depth : 16 bits
Compression mode : Lossy
Stream size : 154 MiB (0%)
Title : Авторский (Василий Горчаков)
Language : Russian
Service kind : Complete Main
Default : No
Forced : No

Audio #7
ID : 8
Format : AC-3
Format/Info : Audio Coding 3
Commercial name : Dolby Digital
Codec ID : A_AC3
Duration : 1 h 35 min
Bit rate mode : Constant
Bit rate : 224 kb/s
Channel(s) : 2 channels
Channel layout : L R
Sampling rate : 48.0 kHz
Frame rate : 31.250 FPS (1536 SPF)
Bit depth : 16 bits
Compression mode : Lossy
Stream size : 154 MiB (0%)
Title : Авторский (Григорий Либергал)
Language : Russian
Service kind : Complete Main
Default : No
Forced : No

Audio #8
ID : 9
Format : AC-3
Format/Info : Audio Coding 3
Commercial name : Dolby Digital
Codec ID : A_AC3
Duration : 1 h 35 min
Bit rate mode : Constant
Bit rate : 224 kb/s
Channel(s) : 2 channels
Channel layout : L R
Sampling rate : 48.0 kHz
Frame rate : 31.250 FPS (1536 SPF)
Bit depth : 16 bits
Compression mode : Lossy
Stream size : 154 MiB (0%)
Title : Авторский (Сергей Кузнецов)
Language : Russian
Service kind : Complete Main
Default : No
Forced : No

Audio #9
ID : 10
Format : DTS XLL
Format/Info : Digital Theater Systems
Commercial name : DTS-HD Master Audio
Codec ID : A_DTS
Duration : 1 h 35 min
Bit rate mode : Variable
Bit rate : 4 174 kb/s
Channel(s) : 6 channels
Channel layout : C L R Ls Rs LFE
Sampling rate : 48.0 kHz
Frame rate : 93.750 FPS (512 SPF)
Bit depth : 24 bits
Compression mode : Lossless
Stream size : 2.79 GiB (6%)
Language : English
Default : No
Forced : No

Text #1
ID : 11
Format : UTF-8
Codec ID : S_TEXT/UTF8
Codec ID/Info : UTF-8 Plain Text
Duration : 1 h 31 min
Bit rate : 40 b/s
Count of elements : 443
Stream size : 27.4 KiB (0%)
Title : Full
Language : Russian
Default : No
Forced : No

Text #2
ID : 12
Format : UTF-8
Codec ID : S_TEXT/UTF8
Codec ID/Info : UTF-8 Plain Text
Duration : 1 h 34 min
Bit rate : 20 b/s
Count of elements : 440
Stream size : 14.5 KiB (0%)
Title : Full
Language : English
Default : No
Forced : No

Menu
00:00:00.000 : en:Hellhole
00:05:39.047 : en:Main Credits
00:10:59.701 : en:Chosen One
00:17:40.309 : en:"It's Still Alive"
00:22:04.240 : en:"No Fear, No Regrets"
00:26:50.651 : en:Preparations
00:35:24.831 : en:Cutting Loose
00:41:43.793 : en:Connection
00:47:57.625 : en:Down The River
00:52:49.249 : en:Expendable
00:59:22.350 : en:Empty Camp
01:06:54.469 : en:No More Orders
01:15:51.046 : en:Eliminating The Enemy
01:20:36.790 : en:Next Morning
01:26:07.621 : en:Sold Out
01:32:37.051 : en:"This Is The End"
pb.wtf



Скачать Рэмбо: Первая кровь 2 через торрент https://a.radikal.ru/a16/1811/fe/8043eda4c7b1.jpg Скачать фильм Рэмбо: Первая кровь 2 через торрент бесплантно в хорошем качестве Описание: Джон Рэмбо отбывает наказание в тюрьме строгого режима. Он смирился со своей участью, но несмотря на свое положение, он ... 10 10 5
Info! Золотая раздача, скачанное не засчитывается.
Торрент: Зарегистрирован [2018-11-12 01:35] · скачан: 45 раз
Статус: √ проверено
Размер: 50.22 GB
Как cкачать? Как скачать Рэмбо: Первая кровь 2 через торрент | UTorrent

28-11-2019 20:33  

Отключить всю рекламу на сайте

    Дорогой пользователь! Огромная просьба, поблагодарите релизера, оцените раздачу и оставьте свои комментарий, если Вы скачали Рэмбо: Первая кровь 2 через торрент бесплатно! Внесите свою лепту в развитие PiratBit!
    Комментировать посты могут только пользователи прошедшие не сложную регистрацию
    Показать сообщения:    

    Рэмбо: Первая кровь 2 через торрент
    Скачать бесплатно Рэмбо: Первая кровь 2
    Рэмбо: Первая кровь 2 скачать торрент
    Рэмбо: Первая кровь 2 смотреть онлайн
    Cкачать фильм Рэмбо: Первая кровь 2 бесплатно
    Рэмбо: Первая кровь 2 скачать торрент в хорошем качестве
    Рэмбо: Первая кровь 2 смотреть онлайн бесплатно в хорошем качестве


    Вы не можете начинать темы
    Вы не можете отвечать на сообщения
    Вы не можете редактировать свои сообщения
    Вы не можете удалять свои сообщения
    Вы не можете голосовать в опросах
    Вы не можете прикреплять файлы к сообщениям
    Вы можете скачивать файлы