Ссылка на приватное зеркало всего за 1$. Внимание количество ограничено!!!

OK

1+1

iTunes

мы

OK

1

WEB-DLRip

Джокер

Пифагор

Ведьмак / The Witcher сериал

iTunes

ПШазам

ОК

Оно 2

iTunes

30
pack

Вам бонус

ВАЖНО

!!Акция!!

Alien_RageХит недели

RePack

Resident Evil 21

ИГРА 18+

pack

RePack

jed

RePack

fifa19

RePack

Assassins Creed: Odyssey

RePack

NEED FOR SPEED™ PAYBACK

4 сезон

9 сезон

Бесстыжие 9 сезон

Все сериалы

все сериалы на PB.wtf

RePack

FAR CRY 5
  

Красная река / River Runs Red (Уэс Миллер) [2018 г., Триллер, WEB-DLRip, Любительский (многоголосый)(MUZOBOZ)] pb.wtf

Красная река через торрент pb.wtf

Размер: 1.3 GB | Добавлен: 1 год 2 мес. назад | Торрент скачан:218 раз
Скачать  

12-11-2018 03:58 Красная река Скачать торрент  

Красная река / River Runs Red

Год выпуска: 2018
Страна: США
Жанр: Триллер
Продолжительность: 01:33:34
Перевод: Любительский (многоголосый)(MUZOBOZ)
Субтитры: Отсутствуют

Режиссер: Уэс Миллер

rating

В ролях: Тэй Диггз, Джон Кьюсак, Джордж Лопес, Люк Хемсворт, Джанни Капальди, Бриана Эвиган, АрДжей Митти, Стивен Берреби, Жаклин Флеминг, Дженнифер Тао

Описание: Когда сын успешного судьи погибает от рук двух полицейских, а система отпускает их без наказания, детектив со стажем находит компрометирующие файлы на офицеров, и судья объединяется с другим скорбящим отцом, чтобы взять правосудие в свои руки.

Доп. информация: Присутствуют вставки текстовой рекламы

Качество: WEB-DLRip
Формат: AVI
Видео кодек: XviD
Аудио кодек: AC3
Видео: XviD, 720x304, ~1589 Kbps
Аудио#1: AC-3, 2 ch, 384 Kbps
скриншот   скриншот   скриншот   скриншот  

Общее
Полное имя : E:\NNM\Красная река\River Runs Red 2018 WEB-DLRip.avi
Формат : AVI
Формат/Информация : Audio Video Interleave
Профиль формата : OpenDML
Размер файла : 1,30 Гбайт
Продолжительность : 1 ч. 33 м.
Общий поток : 1986 Кбит/сек

Видео
Идентификатор : 0
Формат : MPEG-4 Visual
Профиль формата : Advanced Simple@L5
Настройки формата : BVOP2
Параметр BVOP формата : 2
Параметр QPel формата : Нет
Параметр GMC формата : Без точки перехода
Параметр матрицы формата : Default (H.263)
Идентификатор кодека : XVID
Идентификатор кодека/Подсказка : XviD
Продолжительность : 1 ч. 33 м.
Битрейт : 1589 Кбит/сек
Ширина : 720 пикселей
Высота : 304 пикселя
Соотношение сторон : 2,35:1
Частота кадров : 23,976 (24000/1001) кадра/сек
Цветовое пространство : YUV
Субдискретизация насыщенности : 4:2:0
Битовая глубина : 4 бит
Тип развёртки : Прогрессивная
Метод сжатия : С потерями
Бит/(Пиксели*Кадры) : 0.303
Размер потока : 1,04 Гбайт (80%)
Библиотека кодирования : XviD 1.2.1 (UTC 2008-12-04)

Аудио
Идентификатор : 1
Формат : AC-3
Формат/Информация : Audio Coding 3
Идентификатор кодека : 2000
Продолжительность : 1 ч. 33 м.
Вид битрейта : Постоянный
Битрейт : 384 Кбит/сек
Каналы : 2 канала
Расположение каналов : Front: L R
Частота : 48,0 КГц
Частота кадров : 31,250 кадров/сек (1536 SPF)
Битовая глубина : 16 бит
Метод сжатия : С потерями
Размер потока : 257 Мбайт (19%)
Выравнивание : Соединение по промежуткам
Продолжительность промежутка : 32 мс. (0,77 видеокадр)
ServiceKind/String : Complete Main

pb.wtf



Скачать Красная река через торрент http://pic1.kartinco.top/images/11/mluov.jpg Скачать фильм Красная река через торрент бесплантно в хорошем качестве Описание: Когда сын успешного судьи погибает от рук двух полицейских, а система отпускает их без наказания, детектив со стажем находит ... 10 10 4
Торрент: Зарегистрирован [2018-11-12 03:58] · скачан: 218 раз
Статус: T временная
Размер: 1.3 GB
Как cкачать? Как скачать Красная река через торрент | qTorrent

% Раздел Тема Автор DL S | L
T Фильмы (мультфильмы) cо спонсором показа (Новинки AVI/MKV) [ 3.77 GB ] Красная река / River Runs Red [2018 WEB-DL 1080p Любительский ] oleg8 Скачать
1 | 0

28-11-2019 20:33  

Отключить всю рекламу на сайте

12-11-2018 06:03 Красная река Скачать торрент  

какого года релиз?pb.wtf
K-Lexx- писал(а):

Поправил.



    Дорогой пользователь! Огромная просьба, поблагодарите релизера, оцените раздачу и оставьте свои комментарий, если Вы скачали Красная река через торрент бесплатно! Внесите свою лепту в развитие PiratBit!
    Комментировать посты могут только пользователи прошедшие не сложную регистрацию
    Показать сообщения:    

    Красная река через торрент
    Скачать бесплатно Красная река
    Красная река скачать торрент
    Красная река смотреть онлайн
    Cкачать фильм Красная река бесплатно
    Красная река скачать торрент в хорошем качестве
    Красная река смотреть онлайн бесплатно в хорошем качестве


    Вы не можете начинать темы
    Вы не можете отвечать на сообщения
    Вы не можете редактировать свои сообщения
    Вы не можете удалять свои сообщения
    Вы не можете голосовать в опросах
    Вы не можете прикреплять файлы к сообщениям
    Вы можете скачивать файлы