Ссылка на приватное зеркало всего за 1$. Внимание количество ограничено!!!

OK

1+1

iTunes

мы

OK

1

WEB-DLRip

Джокер

Пифагор

Ведьмак / The Witcher сериал

iTunes

ПШазам

ОК

Оно 2

iTunes

30
pack

Вам бонус

ВАЖНО

!!Акция!!

Alien_RageХит недели

RePack

Resident Evil 21

ИГРА 18+

pack

RePack

jed

RePack

fifa19

RePack

Assassins Creed: Odyssey

RePack

NEED FOR SPEED™ PAYBACK

4 сезон

9 сезон

Бесстыжие 9 сезон

Все сериалы

все сериалы на PB.wtf

RePack

FAR CRY 5
  

Крампус: Начало / Krampus Origins (Джозеф Мба) [2018 г., Ужасы, WEB-DLRip, Любительский (многоголосый) (Синема УС)] pb.wtf

Крампус: Начало через торрент pb.wtf

Размер: 1.31 GB | Добавлен: 1 год 2 мес. назад | Торрент скачан:133 раза
Скачать  

12-11-2018 05:03 Крампус: Начало Скачать торрент  

Крампус: Начало / Krampus Origins
Год выпуска: 2018
Страна: США
Жанр: Ужасы
Продолжительность: 01:25:33
Перевод: Любительский (многоголосый)(Синема УС)
Субтитры: Отсутствуют

Режиссер: Джозеф Мба

rating

В ролях: Мария Олсен, Анна Харр, Амелия Хаберман, Кэти Пибоди, Дастин Лейтон, Люк Ваксман, Линда Кушма, Ной Кларк, Этан Дрю

Описание: В разгар первой мировой войны отряд американских солдат находит таинственный артефакт, который способен призвать древнее зло - Крампуса. После гибели отряда в бою, артефакт отправляют вдове командира, которая преподает историю в небольшом приюте. Сироты случайно вызывают Крампуса, и теперь учительнице и ее подопечным предстоит сразиться с древним злом.

Доп. информация: Присутствуют вставки голосовой и текстовой рекламы

Качество: WEB-DLRip
Формат: AVI
Видео кодек: XviD
Аудио кодек: AC3
Видео: Xvid, 720x304, ~1797 Kbps
Аудио#1: AC3, 2 ch, 384 Kbps
скриншот   скриншот   скриншот   скриншот  

Общее
Полное имя : D:\CD\Крампус - Начало (Ужасы) 2018 WEB-DLRip\Крампус - Начало (Ужасы) 2018 WEB-DLRip.avi
Формат : AVI
Формат/Информация : Audio Video Interleave
Размер файла : 1,31 Гбайт
Продолжительность : 1 ч. 25 м.
Общий поток : 2190 Кбит/сек
Программа кодирования : VirtualDubMod 1.5.10.2 (build 2540/release)
Библиотека кодирования : VirtualDub build 35576/release

Видео
Идентификатор : 0
Формат : MPEG-4 Visual
Профиль формата : Advanced Simple@L5
Настройки формата : BVOP2 / Custom Matrix
Параметр BVOP формата : 2
Параметр QPel формата : Нет
Параметр GMC формата : Без точки перехода
Параметр матрицы формата : Выборочная
Идентификатор кодека : XVID
Идентификатор кодека/Подсказка : XviD
Продолжительность : 1 ч. 25 м.
Битрейт : 1797 Кбит/сек
Ширина : 720 пикселей
Высота : 304 пикселя
Соотношение сторон : 2,35:1
Частота кадров : 23,976 (24000/1001) кадра/сек
Цветовое пространство : YUV
Субдискретизация насыщенности : 4:2:0
Битовая глубина : 8 бит
Тип развёртки : Прогрессивная
Метод сжатия : С потерями
Бит/(Пиксели*Кадры) : 0.342
Размер потока : 1,07 Гбайт (82%)
Библиотека кодирования : XviD 1.2.1 (UTC 2008-12-04)

Аудио
Идентификатор : 1
Формат : AC-3
Формат/Информация : Audio Coding 3
Коммерческое название : Dolby Digital
Идентификатор кодека : 2000
Продолжительность : 1 ч. 25 м.
Вид битрейта : Постоянный
Битрейт : 384 Кбит/сек
Каналы : 2 канала
Channel layout : L R
Частота : 48,0 КГц
Частота кадров : 31,250 кадров/сек (1536 SPF)
Битовая глубина : 16 бит
Метод сжатия : С потерями
Размер потока : 235 Мбайт (18%)
Выравнивание : Разделение по промежуткам
Продолжительность промежутка : 42 мс. (1,00 видеокадр)
Время предзагрузки промежутка : 500 мс.
ServiceKind/String : Complete Main

pb.wtf



Скачать Крампус: Начало через торрент http://pic1.kartinco.top/images/11/eh6il.jpg Скачать фильм Крампус: Начало через торрент бесплантно в хорошем качестве Описание: В разгар первой мировой войны отряд американских солдат находит таинственный артефакт, который способен призвать древнее зло - ... 7.8 10 4
Торрент: Зарегистрирован [2018-11-12 05:03] · скачан: 133 раз
Статус: T временная
Размер: 1.31 GB
Как cкачать? Как скачать Крампус: Начало через торрент | qTorrent

28-11-2019 20:33  

Отключить всю рекламу на сайте

12-11-2018 09:27 Крампус: Начало Скачать торрент  

ТВ3?pb.wtf



12-11-2018 15:39 Крампус: Начало Скачать торрент  

BloodDragon писал(а):

ТВ3?

Хуже.... ГОРАЗДО хуже.pb.wtf



12-11-2018 20:40 Крампус: Начало Скачать торрент  

ну и г....pb.wtf



    Дорогой пользователь! Огромная просьба, поблагодарите релизера, оцените раздачу и оставьте свои комментарий, если Вы скачали Крампус: Начало через торрент бесплатно! Внесите свою лепту в развитие PiratBit!
    Комментировать посты могут только пользователи прошедшие не сложную регистрацию
    Показать сообщения:    

    Крампус: Начало через торрент
    Скачать бесплатно Крампус: Начало
    Крампус: Начало скачать торрент
    Крампус: Начало смотреть онлайн
    Cкачать фильм Крампус: Начало бесплатно
    Крампус: Начало скачать торрент в хорошем качестве
    Крампус: Начало смотреть онлайн бесплатно в хорошем качестве


    Вы не можете начинать темы
    Вы не можете отвечать на сообщения
    Вы не можете редактировать свои сообщения
    Вы не можете удалять свои сообщения
    Вы не можете голосовать в опросах
    Вы не можете прикреплять файлы к сообщениям
    Вы можете скачивать файлы