Ссылка на приватное зеркало нашего сайта всего за 1$. Внимание количество ограничено!!!

2 сезон

iTunes

1 сезон

1

2 сезон

2 сезон

iTunes

1 сезон

RePack

30

Ultimate

ВАЖНО

ИГРА 18+

pack

RePack

MK11
pack

Забери бонус

RePack

jed

!!Акция!!

Alien_Rage

RePack

fifa19

RePack

Assassins Creed: Odyssey

RePack

NEED FOR SPEED™ PAYBACK

4 сезон

9 сезон

Бесстыжие 9 сезон

Все сериалы

все сериалы на PB.wtf

RePack

FAR CRY 5
  

Великий уравнитель 2 / The Equalizer 2 (Антуан Фукуа) [2018, боевик, триллер, криминал, Remux 1080p] DUB [iTunes] pb.wtf

Великий уравнитель 2 через торрент pb.wtf

Размер: 21.85 GB | Добавлен: 2 года назад | Торрент скачан:138 раз
Скачать  

12-11-2018 11:30 Великий уравнитель 2 Скачать торрент  

Информация о фильме

Название: Великий уравнитель 2
Оригинальное название: The Equalizer 2
Год выхода: 2018
Выпущено: США / Columbia Pictures
Жанр: боевик, триллер, криминал
Продолжительность: 02:00:57
Перевод: Дублированный | iTunes
Субтитры: Русские (Forced, full), украинские (Full), английские

Режиссер: Антуан Фукуа / Antoine Fuqua

В ролях:

Дензел Вашингтон, Педро Паскаль, Билл Пуллман, Мелисса Лео, Джонатан Скарф, Сакина Джэффри, Кэролайн Дэй, Орсон Бин, Хайди Гарроу, Эштон Сандерс

Описание:

Продолжение истории Роберта Маккола, бывшего агента ЦРУ, который самостоятельно вершит правосудие.

Качество: BD Remux 1080p
Формат: MKV

Видео: MPEG-4 AVC, 1920x1080, 22.7 Mbit/s, 23.976 fps
Аудио#1: 48 kHz, AC3, 5.1, 384 Kbps | iTunes | RUS |
Аудио#2: 48 kHz, DTS-HD MA, 7.1, 2733 Kbps | Оригинал | ENG |
скриншот  скриншот  скриншот  скриншот  скриншот  

General
Unique ID : 332072143517472730017017445925556632049 (0xF9D2C4BBBDF402CC2A653DB02578B9F1)
Complete name : D:Video111The.Equalizer.2.2018.BDREMUX.1080p.selezen.mkv
Format : Matroska
Format version : Version 4
File size : 21.9 GiB
Duration : 2 h 0 min
Overall bit rate mode : Variable
Overall bit rate : 25.9 Mb/s
Movie name : The Equalizer 2 (2018) from селезень
Encoded date : UTC 2018-11-12 06:19:56
Writing application : mkvmerge v28.2.0 ('The Awakening') 64-bit
Writing library : libebml v1.3.6 + libmatroska v1.4.9

Video
ID : 1
Format : AVC
Format/Info : Advanced Video Codec
Format profile : High@L4.1
Format settings : CABAC / 2 Ref Frames
Format settings, CABAC : Yes
Format settings, ReFrames : 2 frames
Format settings, GOP : M=1, N=10
Codec ID : V_MPEG4/ISO/AVC
Duration : 2 h 0 min
Bit rate mode : Variable
Bit rate : 22.7 Mb/s
Width : 1 920 pixels
Height : 1 080 pixels
Display aspect ratio : 16:9
Frame rate mode : Constant
Frame rate : 23.976 (24000/1001) FPS
Color space : YUV
Chroma subsampling : 4:2:0
Bit depth : 8 bits
Scan type : Progressive
Bits/(Pixel*Frame) : 0.458
Stream size : 19.2 GiB (88%)
Language : English
Default : Yes
Forced : No

Audio #1
ID : 2
Format : AC-3
Format/Info : Audio Coding 3
Commercial name : Dolby Digital
Codec ID : A_AC3
Duration : 2 h 0 min
Bit rate mode : Constant
Bit rate : 384 kb/s
Channel(s) : 6 channels
Channel layout : L R C LFE Ls Rs
Sampling rate : 48.0 kHz
Frame rate : 31.250 FPS (1536 SPF)
Bit depth : 16 bits
Compression mode : Lossy
Stream size : 332 MiB (1%)
Title : iTunes
Language : Russian
Service kind : Complete Main
Default : Yes
Forced : Yes

Audio #2
ID : 3
Format : DTS XLL
Format/Info : Digital Theater Systems
Commercial name : DTS-HD Master Audio
Codec ID : A_DTS
Duration : 2 h 0 min
Bit rate mode : Variable
Bit rate : 2 733 kb/s
Channel(s) : 8 channels
Channel layout : C L R LFE Lb Rb Lss Rss
Sampling rate : 48.0 kHz
Frame rate : 93.750 FPS (512 SPF)
Bit depth : 16 bits
Compression mode : Lossless
Stream size : 2.31 GiB (11%)
Title : Original
Language : English
Default : No
Forced : No

Text #1
ID : 4
Format : UTF-8
Codec ID : S_TEXT/UTF8
Codec ID/Info : UTF-8 Plain Text
Duration : 1 h 59 min
Bit rate : 1 b/s
Count of elements : 43
Stream size : 1.60 KiB (0%)
Title : Forced
Language : Russian
Default : Yes
Forced : Yes

Text #2
ID : 5
Format : UTF-8
Codec ID : S_TEXT/UTF8
Codec ID/Info : UTF-8 Plain Text
Duration : 1 h 59 min
Bit rate : 57 b/s
Count of elements : 1062
Stream size : 50.3 KiB (0%)
Title : Full
Language : Russian
Default : No
Forced : No

Text #3
ID : 6
Format : UTF-8
Codec ID : S_TEXT/UTF8
Codec ID/Info : UTF-8 Plain Text
Duration : 1 h 59 min
Bit rate : 55 b/s
Count of elements : 1058
Stream size : 48.7 KiB (0%)
Title : Full
Language : Ukrainian
Default : No
Forced : No

Text #4
ID : 7
Format : UTF-8
Codec ID : S_TEXT/UTF8
Codec ID/Info : UTF-8 Plain Text
Duration : 1 h 52 min
Bit rate : 40 b/s
Count of elements : 1283
Stream size : 33.6 KiB (0%)
Title : Full
Language : English
Default : No
Forced : No

Menu
00:00:00.000 : en:Chapter 1
00:01:31.758 : en:Chapter 2
00:01:58.577 : en:Chapter 3
00:04:54.127 : en:Chapter 4
00:05:33.041 : en:Chapter 5
00:05:51.893 : en:Chapter 6
00:06:24.092 : en:Chapter 7
00:06:55.498 : en:Chapter 8
00:07:06.635 : en:Chapter 9
00:07:35.622 : en:Chapter 10
00:07:53.765 : en:Chapter 11
00:08:09.781 : en:Chapter 12
00:08:21.793 : en:Chapter 13
00:08:38.935 : en:Chapter 14
00:09:08.840 : en:Chapter 15
00:09:44.375 : en:Chapter 16
00:11:32.233 : en:Chapter 17
00:11:41.075 : en:Chapter 18
00:12:05.725 : en:Chapter 19
00:13:03.783 : en:Chapter 20
00:15:24.674 : en:Chapter 21
00:15:58.291 : en:Chapter 22
00:16:19.186 : en:Chapter 23
00:16:54.347 : en:Chapter 24
00:17:58.327 : en:Chapter 25
00:19:33.547 : en:Chapter 26
00:20:02.993 : en:Chapter 27
00:20:55.963 : en:Chapter 28
00:23:04.633 : en:Chapter 29
00:23:50.179 : en:Chapter 30
00:23:59.688 : en:Chapter 31
00:24:13.994 : en:Chapter 32
00:24:20.709 : en:Chapter 33
00:25:47.588 : en:Chapter 34
00:28:22.617 : en:Chapter 35
00:28:39.426 : en:Chapter 36
00:31:49.908 : en:Chapter 37
00:32:04.589 : en:Chapter 38
00:32:13.640 : en:Chapter 39
00:34:11.174 : en:Chapter 40
00:35:14.571 : en:Chapter 41
00:36:09.834 : en:Chapter 42
01:31:39.244 : en:Chapter 43
01:32:20.660 : en:Chapter 44
01:32:41.014 : en:Chapter 45
01:33:19.969 : en:Chapter 46
01:34:56.524 : en:Chapter 47
01:41:27.832 : en:Chapter 48
01:41:36.382 : en:Chapter 49
01:42:24.722 : en:Chapter 50
01:46:59.496 : en:Chapter 51

pb.wtf



Скачать Великий уравнитель 2 через торрент http://img11.lostpic.net/2018/11/12/02ba10f28eac5731eea88e3b315cfdd5.jpg Скачать фильм Великий уравнитель 2 через торрент бесплантно в хорошем качестве Описание: Продолжение истории Роберта Маккола, бывшего агента ЦРУ, который самостоятельно вершит ... 10 10 7
Торрент: Зарегистрирован [2018-11-12 11:30] · скачан: 138 раз
Статус: √ проверено
Размер: 21.85 GB
Как cкачать? Как скачать Великий уравнитель 2 через торрент | qTorrent

% Раздел Тема Автор DL S | L
Фильмы (HD 720p, 1080p) (48-60 fps) [ 3.32 GB ] Великий уравнитель 2 / The Equalizer 2 [2018 BDRip 720p / 60 FPS BD CEE] от R.G. HD-Films slaventi-69 Скачать
5 | 0
Фильмы (DVD фильмы) [ 7.74 GB ] Великий уравнитель 2 / The Equalizer 2 [2018 DVD9 ] + [AVO] killermax2013 Скачать
1 | 0
Фильмы (HD 720p, 1080p) (48-60 fps) [ 14.85 GB ] Великий уравнитель 2 / The Equalizer 2 [2018 BDRip 1080p 60 fps] DUB [] bober100 Скачать
1 | 0
Ultra HD (UHD: 2K, 4K, 8K) — видео сверхвысокой чёткости [ 56.03 GB ] Великий уравнитель 2 / The Equalizer 2 [2018 UHD Blu-Ray EUR 2160p] DUB [] bober100 Скачать
1 | 0
Фильмы (Blu-ray, BD-Remux, HDDVD) [ 40.83 GB ] Великий уравнитель 2 / The Equalizer 2 [2018 Blu-ray 1080p] DUB [] bober100 Скачать
1 | 0
Ultra HD (UHD: 2K, 4K, 8K) — видео сверхвысокой чёткости [ 26.32 GB ] Великий уравнитель 2 / The Equalizer 2 [2018 UHD BDRip 2160p] [SDR] DUB + AVO [Дмитрий Есарев] sheker187 Скачать
1 | 0
Фильмы [HD 720p, 1080p] (Хороший звук DUB, MVO) [ 12.25 GB ] Великий уравнитель 2 / The Equalizer 2 [2018 BDRip 1080p] DUB + AVO [Д. Есарев] sheker187 Скачать
1 | 0

28-11-2019 20:33  

Отключить всю рекламу на сайте

    Дорогой пользователь! Огромная просьба, поблагодарите релизера, оцените раздачу и оставьте свои комментарий, если Вы скачали Великий уравнитель 2 через торрент бесплатно! Внесите свою лепту в развитие PiratBit!
    Комментировать посты могут только пользователи прошедшие не сложную регистрацию
    Показать сообщения:    

    Великий уравнитель 2 через торрент
    Скачать бесплатно Великий уравнитель 2
    Великий уравнитель 2 скачать торрент
    Великий уравнитель 2 смотреть онлайн
    Cкачать фильм Великий уравнитель 2 бесплатно
    Великий уравнитель 2 скачать торрент в хорошем качестве
    Великий уравнитель 2 смотреть онлайн бесплатно в хорошем качестве


    Вы не можете начинать темы
    Вы не можете отвечать на сообщения
    Вы не можете редактировать свои сообщения
    Вы не можете удалять свои сообщения
    Вы не можете голосовать в опросах
    Вы не можете прикреплять файлы к сообщениям
    Вы можете скачивать файлы